&title=ambiguous
&artist=GARNIDELiA
&first=-0.02
&des=鬼龙院皐月
&des_5=鬼龙院皐月
&lv_5=13
&inote_5=(178){4},{2},{4}1V35[1:1],
,,,8V64[1:1],
,,,3V52[1:1],
,,,8-6[8:1],
,1-5[8:1],,6-2[1:1]/4-8[1:1],
{1},{4},{8},4,
{4}1b/6b,{8}3/7,2,
1/6,5-2[8:1]*-1[8:1],{4},{8},3/8,,5,
6/1,2,3/4,4/3,6,4/8,,5/6,
8/3,4-7[8:1]*-8[8:1],{4},{8},6/1,,5,
4/3,2,8-4[8:1],7-3[8:1],8,7,,2,
1/5,6-1[8:1]*-2[8:1],{4},{8},4/7,,3,
8/2,6,{16}3,4,{8}3,2/5,7/8,,6,
8/3,2-6[8:1]*-5[8:1],{4},{8},4/7,,3,
8-4[8:1],4w8[8:1],{4}8,,3h[8:1]/8-5[2:1],
3h[8:1],3h[8:1],3,5h[8:1]/3-8[2:1],
5h[8:1],5h[8:1],5,2h[8:1]/5-1[2:1],
2h[8:1],2h[8:1],2,7h[8:1]/2-4[8:1],
7h[8:1],6h[8:1]/5-1[8:1],6h[8:1],2/7h[8:1],
3/7h[8:1],4/7h[8:1],{8}7/5,{16}4,6,{4}4h[8:1],
7/4h[8:1],8/4h[8:1],{8}4/1,{16}8,3,{4}8h[8:1],
4/8h[8:1],5/8h[8:1],{8}8/4,{16}3,7,{4}3h[8:1],
5/3h[8:1],4w8[8:1],,2-5[8:1],
{8}8,8,,3,{4}2-4[8:1],{8}6,5-2[8:1],
,7,{4}8<5[8:1]*-4[8:1],,3-8[8:1],
{8}6,6,,3,{4}2-8[8:1],{8}8,7-3[8:1],
,6,{4}5V31[8:1]*v8[8:1],,{8}7-4[8:1],7,
2,1h[8:3],{4},{8}5<8[8:1],5,2,3h[8:3],
{4},{8}7,7,4/6,6/4,3>8[8:1],3,
6,5h[8:3],{4},{8}1-4[8:1],1,6,7,
{4}8w4[8:1],8,{8},2pp8[4:3],{2},{4}6,
{8}5,5pp8[4:3],{4},1,
2,{8}4,4qq5[4:3],{4},8,
7,{8}6,6<4[2:1],{4},5,
5,{8},2qq3[4:3],{4},5,
6,{8}7,7<4[4:1],,4>1[4:1],
,1<6[4:1],,4,,2-5[8:1]*-6[8:1],,2,
,3-8[8:1],,3,,6h[8:5],,1,
2,3,{4}4w8[8:1],4b,{8}5/2-5[8:1],1,
2/6,8-6[8:1]*-4[8:1],,8,,7-5[8:1]/3-1[8:1],,3/7,
,8-3[8:1]/4-7[8:1],,4/8,{4},{8}1/6-1[8:1],5,
2/6,3-7[8:1],,3/8-4[8:1]*-5[8:1],,8,{4},{8}6,8-4[8:1]/3-8[8:1],
,8/3<8[4:1],,3/1h[4:1],{4},{8},7,
{4}6/5>1[16:3],{8}7,8-4[8:1],,6,
,5V71[16:3],,4,3,2,3/7,6,
4/5,3,2/6,7,8/3,6,{16}1,5,3,7,
2,4,8,6,{32}1,2,3,4,5,6,7,8,{4}1b/5b,{8}2/6<1[8:1],5,
6/4,3-8[8:1]*-7[8:1],,3,,2v5[8:1]/6v1[8:1],,2/6,
,4V28[8:1]/8V64[8:1],,8b/4b,{4},{8}7/1-5[8:1],2,
1/7,6-8[8:1],,6/4,,1b-5[8:1]/2b-6[8:1],,2b/1b>4[8:1],
,1b/8b,,{24}3b/7b,6/2,5/1,{4},6/2pp8[8:3],
{2},{8}5,6pp5[8:3]/2pp1[8:3],{4},,,2,
4/6V47[4:1],
{8}3,2-6[8:1],,2/8-4[8:1],,8/3-5[8:1],,3/6-1[8:1],
,6/4,,3,{4}8b-4[8:1]/2b-6[8:1],2/8,
{8}3,4v1[8:1]/5-8[8:1],,4/5,,2/6,3,4/7,
6,5/3,{16}2,6,4,5,{8}1,2/6,,4/7,
6,3-5[8:1]/8-5[8:1],,3/8,,4/7,6,5/3,
2,3/8,{16}5,7,4,6,{8}1,7/3,,4/6,
7,8-5[8:1]/1v4[8:1],,1/8,,3/7,4,2/5,
6,7/3,{16}4,6,3,5,{8}1,3/7,,4/6,
2,3/5w1[8:1],,5,,7/3,,4,
3/5,6,4/7,1/2,{4},{8}3/5,7,
{4}4/6,{8}3/7,1/5,,{24}2/6,3/7,4p2[24:49]/8p6[24:49],
