&title=Petals (feat. 夏背)
&artist=Orangestar
&first=0
&des_5=Syuteru
&lv_5=12+
&des=Syuteru
&inote_5=(87)
(174)
{1},
{4}1x,2h[4:7],,3,4,5,6,7,8h[2:1],,B2/B3/E2/E3/E4,,
8h[4:4],1,2,3,4h[4:1],,5h[2:1],4,3h[8:12],2,1,8,7h[8:4],
{2},
{4},2p4>2[4:4],1,8,7,6,5b,,,5V31[4:4],6,7,8,1>5[4:4],E1,B8,B7,B6,
{16}E6,,6hx[8:7],,
{4}C,5,4,3b,,,7>2v4[4:4],6,5,E6,B7,E1,
{2},
{4}1>5[4:4],5,6,7,8,1,,8-4[4:1],1,2-5[4:1],1,8pp4[4:2],7,6,,
5<7[4:1],7>1[4:1],1>4[4:1],4-8[4:1],8-4[4:1],
{4}B1/E2,B3/E3,
{4}5>3[4:1],3>8[4:1],8<4[4:1],4pp8[4:4],B4/E4,B3/E3,B2/E2,,A8,1-4[4:1],8,7-3[4:1],6,5-2[4:1],4,3x,E6/B5/B6,E8/B7/B8,B1/E1/E2,B2/B3/E3,C/E5/B4/B5,4>1[4:2]/5<8[4:2],4/5,,A1/A8,,1h[4:1],8h[4:1],7h[4:1],6h[4:1],5h[4:2],4,E4/B3/B4,E2/B1/B2,1h[4:1],2h[4:1],3h[4:1],4,4b/5b,Ch[2:3]f/B1/B2/B3/B4/B5/B6/B7/B8/E1/E2/E3/E4/E5/E6/E7/E8,
{2},,,
{4}6-8^1[8:1]/6-4^3[8:1],6w2[4:3]b/E7/E6/A6,
{1},
{4},3/1,2h[4:5],,4,3,1,8,,,7p3[4:1],8,1p5[4:1],8,8q2[4:2],1,1,,7h[4:5],,E6f,E5f,E4f,E3f,,
{8}1/8h[8:3],
{16},2x,
{8},3x,4>6x[8:8]/5h[8:10],
{4},,,,,
{8},1/8,,
{4}2/7h[4:2],,8,7h[4:2],8,1h[4:5],E8/B7,E5/B5,E2/B1/B2/Ch[4:2],,
{8},,
{1},
{4}B5h[4:3],B6h[4:2],,C/B1/B2/E1/E2/E3,,7>2[4:1],2<4[4:3],A3,B3,C,E8,
{2},
{4}4qq4pp4[4:4]b,B3/E4,B2/E3,E2h[4:2],E1h[4:1],A1,,7-3[4:1],3,2-6[4:1],6,7,8h[4:2],B8,1,,2-5-8-4[4:3],5,8,4,5h[4:2],,C,8h[4:1],1h[4:1],2h[4:1],3h[4:1],4h[4:3],E5,E6,6h[4:2],E5,5h[4:2],E4,4h[4:3],E4,Ch[4:1]f,,8h[4:1]/7h[4:1],,E1/E7/E8/B1/B6/B7/B8,E5/E3/E4/B5/B2/B3/B4,
{16}E6h[4:3],,,B4,B3,,,,2b,,,,
{4}1b,,4/5,3/6,2/7,1-5[87#8:1]/8-4[87#8:1],2/7,1b/8b,,,1/2,3/4,5-1[87#12:1]/6-2[87#12:1],4/7,5b/6b,8,7h[1:3]b,
{1},
{4},C,B1h[4:2]/B8h[4:2],,D1,D2,D3,D4,,,5s1[4:2],6,7,8,E8/B7/B8,E2/B1/B2,E4/B3/B4,,5-2-7-3-8[8:9],,4bx-7-2-5-8[8:5]b,
{2},
{16},,
{8},
{4},
{16}1x,,,2x,,,3x>4[8:9],,
{4}3xh[4:5],
{2},,
{4},5/4,6h[4:2],,C,7h[4:2],8,1,2<3[87#8:5]/3p2[87#8:5],E1/E5/B1/B4/B5/B8,2/3,
{1},,
{2},
{4}1/8,2/7,3/6,4/5,B3/B4/B5/B6/E4/E6,B7/B8/B1/B2/E8/E2,1h[2:7]/8bxqq6qq4qq2qq8pp2pp4pp6pp8[4:13]b,
{1},,,
{2},
{4},8/1-4[87#8:1],2,1/8-5[87#8:1],7,2-6[87#8:1]/8,3,2/7-3[87#8:1],8,7/5,2,3,4,5<1[4:1],1b>5[4:1]b,C,
,4/5-8[87#8:1],6,5/4-1[87#8:1],3,6-2[87#8:1]/4,7,6/3-7[87#8:1],4,3/1,6,7,8,1>5[4:1],5b<1[4:1]b,C,
{4}6-8^1[8:1]/6-4^3[8:1],6w2[4:3]b/E7/E6/A6,
{1},
{4},7/5,6h[4:5],,8,7,5,4,,,3p7[4:1],4,5p1[4:1],4,4q6[4:2],5,5,,3h[4:5],,E2/E3/B2/A2f,E1/B1/B8f,E7/E8/B7/A7f,B5/B6/E6f,,
{8}5/4h[8:3],
{16},6x,
{8},7x,8<2x[8:8]/1h[8:10],
{4},,,,,
{8},5/4,,
{4}6/3h[4:2],,4,3h[4:2],4,5h[4:5],E4/B3,E1/B1,E6/B5/B6/Ch[4:2],,
{8},,
{1},
{4}B1h[4:3],B2h[4:2],,C/B5/B6/E5/E6/E7,,3<6[4:1],6>8[4:3]b,A7,B7,C,E4,
,8,1,2pp5[4:3],A1,A8,A7,A6,,4h[4:1]/5h[4:1],,6-3[4:3],A7,B8,B1,A2,,2,3,4p8>4[4:3],8,7,6,E6/B6/B5,,E8/Ch[2:3],E1,E2,E3,E4,E5h[4:1],,,5>3[4:1],3>8[4:1],8<4[4:1],4pp2[4:4],B4/E4,B3/E3,B2/E2,
{2},
{4}7b-2^3-6^7[4:4]b,B7,B2,B3,B6,
{2},
{4},6bw2[4:2]b,,,D2/D3/A2,
{8}1h[8:1]/3h[8:1],,
E
