&title=Senkyou
&artist=MYTK
&first=0.034
&des=dissipae
&lv_5=14
&inote_5=(180){4},{8},,,,,,2h[8:3],
,,4,,,{4}5/7h[8:3],
{8},8,,1,2,3h[4:1],4,5,
4/7>2[8:1],,,3,{4}3h[4:1],4-8[8:1],
{2}8<3[2:1],2h[4:1],
{4}1,1,{2}8/2h[4:1],
{4}3/7,2-5[8:1]/6-1[8:1],{2}6/2,
{8}5/2<7[8:1],,,6,{4}6h[4:1],5-1[8:1],
{2}1>6[2:1],7h[4:1],
{4}8,8,{2}1/7h[2:1],
{48},8/6,5/1,2/4,{12}3-7[16:5],,,,,,,,,,,{4}3/8h[4:1],
{8}5,4/7,{16}3,4,,8,1,7,{8}8h[8:23],
,,,7,{4}7,7,
5,1,{8},7,7,7,
7,,,6,6,6,{4}6,
6/1h[4:1],{8}4,5/2,{16}1,7,,4,5,3,{8}4h[8:23],
,,3,3,3,2,{4}2,
2,1,{8},8,8,8,
8,1,2,3,3,3,3,4,
{4}5/7,{16}5/7,,,8/7,,,{8}8/7,{16},4/7,,,{8}7/3,
6/2,{16}4/1,,,4/1,,,{8}8/1,{16},8/1,,,{4}4/6,
{16}5/3,,,7/4,,,{8}5/2,{16},7/5,,,{8}4/2,
5/3,{16}4/6,,,2/8,,,{8}7/1,{16},3/8,,,{8}6/1,
7/2,{16}3/8h[4:3],,,5,,,{8}4,{16},6,,,{8}1,
1,{16}6/1h[4:3],,,4,,,{8}5,{16},4,,,4,
8,4,8,5,1,5,1,6,2,6,2,7,3,7,3,
{1}8h[1:1],
{4}1-5[8:1],{8}1/3,4h[8:3],,,8,7/5h[4:1],
,4,{16}4<7[8:1],,,3h[8:1],,,{8}2h[16:1],{4}1-4[8:1],
1/8-4[8:1],{8}8/6,5h[8:3],,,1,8/4,
,2/6,7/3,4-1[8:1]/8-5[8:1],,4/8,,7/3,
{4}8/4-8[8:1],{8}4/7,5h[8:3],,,{4}6-2[8:1],
{8},8,{4}7/1,{8}8/3,{16}1,1,{8}1,2/8,
{4}5/1>4[8:1],{8}5/1,7-4[8:1],,7/2,1-5[8:1],6,
1-4[8:1],6-1[8:1],1,6,,3,7,8/4,
{24}4/8-4[8:1],7/3,{12}6/2,{24},,{8}8/5,5h[8:3],,,2,4/1h[4:1],
,6,{16}7/5>2[8:1],,,8h[8:1],,,{8}7,6,5,
{24}5/1-5[8:1],2/6,{12}3/7,{24},,{8}1/4,4h[8:3],,,7,5/8h[4:1],
,3,2/4,1>4[8:1]/5<8[8:1],,5/1-5[8:1],,,4,
4,{16}4,5,4,5,3,6,2,7,{24}1,8,1,8,1,8,
{16}2h[16:3],,,8h[16:3],,,{8}4,3/5,{16}4,4,{8}4,5/3,
{4}2/6-1[8:1],{8}6/2,4-8[8:1],7,4,6,{16}1,7,
{1}6/3h[1:1],
{4}7,{16}7,,,7,,,{8}7,{16},7h[1:1],,,{8}3,
3,{16}3,,,2,,,{8}2,{16},2h[1:1],,,{4}5,
{16}5,,,5,,,{8}5,{16},5h[1:1],,,{8}1,
1,{16}1,,,8,,,{8}8,{16},8h[1:1],,,{8}4,
4,{16}4,,,3,,,{8}3,{16},3h[1:1],,,{8}7,
7,{16}7,,,8,,,{8}8,{16},8h[16:3],,,5,
1,5,1,6,2,6,2,7,3,7,3,8,4,8,4,
{2}1h[8:7],{8}2,{16}2,3,{8}4,4,
{16}4/8,7,6,5,4,3,2,1,{8}8,2h[8:1],{12}7,7,7,
{8}7,1h[8:1],{12}6,6,6,{8}6,8h[8:1],{12}5,5,5,
{6}5h[4:1],{12}3,3,4,4,{6}5/2,{12}6,6,5,5,
{4}7-4[8:1]/4-1[8:1],7/4,{8}6/2,{16}6/2,7/3,{8}8/4,8,
{16}4/8,5,6,7,8,1,2,3,{6}4/8,{12}1,1,1,1,
1,1,1,1,1,1,1,1,1,1-4[8:1],,,{4}1,
{12}5,6,7,{6}8h[6:1],{12}2,3,4,5h[12:1],
{4}7-4[8:1]*-2[8:1],7,{8}5/1,{16}1/5,2/6,{8}3/7,7,
{16}7/3h[8:1],,,6/2h[8:1],,,{8}1/5,{6}5/1,{12}3,4,{24},{8}3/5,
{24},,{12}3/6,,3/7,,3/8,{24},,,{8}3/7,{24}6,5,4,3,2,1,
8h[8:3],,,,,7,,,,{8}1,{6}3h[8:3],4,{24},{8}8,
{4}2-6[8:1]/6-1[8:1],6/2,{8}8/4,{16}7,5,{8}6,3/4,
{16}2h[8:1]/8h[8:1],,,7h[8:1]/3h[8:1],,,{8}4h[16:1]/6h[16:1],{16}8qq4[8:5],,,3h[16:1],,,{8}2h[16:1],
{16},1h[16:1],,,2h[16:1],,,3h[16:1],,,{8}4h[16:1],{4}6-2[8:1]/1-6[8:1],
6/1,{8}8,5h[4:1],,1,3,5h[8:3],
{4}4-8[8:1],4,{8}6/1,{16}8,8,{8}8,7/1,
{1}7<2[4:13]/1p8[4:13],
,,,{8}8,
7,7-4[8:1],1,2,3-8[8:1],5,6,
6>3[8:1],7,8,1-5[8:1],2,2,3,4,
{16}4,5,3,6,2,7,1,8,3,4,2,5,1,6,8,7,
{2}1>6[4:1],{16}7,8,1,2,3,4,5,6,
{4}7/1-4[8:1],{8}1/7,5-1[8:1],,5/2,{4}8-4[8:1],
{8}8/7,6>3[8:1],7,8,1<6[8:1],2,3,{16}4,3,
{4}2-5[8:1],{16}2/8,7,{8}6-1[8:1],,6/2-7[8:1],3,2/8,
,6-1[8:1]/2-5[8:1],5/1,6/2,,3<6[8:1],6,3/7,
{4}8-5[8:1],{8}8/2,{16}3,4,{8}2,8/1,6/5,7/4,
,2/5,{4}3/4,{16}4-8[8:1]/5-1[8:1],6/3,{8}2/7,{4}4/5,
7/2,{8}1/5,3/4,,7-4[8:1],8,7/1,
2<7[8:1],3,4,5>2[8:1],6,7,{16}7,8,6,1,
{4}5-8[8:1],{8}5/3,1-5[8:1],,1/6,{4}4-8[8:1],
{8}4/3,2<7[8:1],3,4,5>2[8:1],6,7,{16}8,7,
{4}6-1[8:1],{16}6/4,3,{8}2-5[8:1],,2/6-3[8:1],7,6/4,
,2-5[8:1]/6-1[8:1],1/5,2/6,,7<4[8:1],1,{16}7,2,
{4}1-4[8:1],{8}1/7,{16}6,5,{8}7,1/8,3/4,2/5,
,6/5,7/4<7[8:1],3,2,1,8,{16}7,7,
{8}5>2[8:3],,,,,1-4[8:1],8,7,
6<1[8:1],5,4,3,2,{16}1,8,2,7,3,6,
4,5,3,7,8,6,3,4,2,5,1,6,{8}2>5[8:1],{16}1,1,
,,{8}8,7p3[8:1],8,1,2>5[8:1],1,8,
{4}6-1[8:1],{16}6/4,3,{8}2-5[8:1],,2/6-3[8:1],7,6/4,
,2-5[8:1]/6-1[8:1],1/5,2/6,,7,{16}8,6,2,4,
8,7,1,5,4,6,,2,1,3,8,4,{8}7<4[8:1],{16}8,8,
,,{8}1,2q6[8:1],1,8,7,8,{16}2,1,
{4}3/8,{8}7/8,{16}6,5,{8}4/7,4/7,2/1,{16}3,4,
{8}2/5,5/2,6/8,{16}2,1,{8}3/8,7/2,1/6,{16}6/1,7/2,
{4}3/8-4[8:1],{8}8/1,2-5[8:1],,2/7,{4}6-2[8:1],
{8}6/4,3,1>4[8:1],8,7,6<1[8:1],5,4,
{4}2-5[8:1],{16}2,5,{8}6-1[8:1],,6/2-7[8:1],{16}3,8,{8}2,
,6-1[8:1]/2-5[8:1],{16}7,3,{8}6,,3<6[8:1],{16}1,7,3,8,
{4}8-4[8:1],{8}8,3h[4:3],,,{4}2,
{8},1,{16}8h[16:3],,,5h[16:5],,,,,{4}2h[4:1],
{1}1qq4[4:3],
{16},,,,,,,,3,5,3,5,2,4,2,4,
{1}2>7[2:1],
E
