&title=THE RED HOOD
&artist=DJERV, COSMOGRAPH, NIEN
&first=0
&des=WJP12138
&lv_5=14+
&des_5=WJP12138
&inote_5=
(206){4},,,,,,,,{1}8-5[4:5]*-2-5[4:5],
{16},,,,,,,,,,,,4bx/8b,3x,2x,1x,
{8}8x,3,7h[8:1],5h[8:1],{4}4,{8}6,{16}7,4,
5,3,5,4,{4}1,{16}A6,B6,C,B2,{4}2b,
1b/3b,3,{16}4,4,4,6,{4}6b,
4,3,{16}4,5,4,5,{4}5bx,
4/5,3/2,4/3,8/7,
{16}4/B4,3/B3,2/B2,1/B1,{4}B8/4w8b[4:1],{8}C,B7/B1,{4}A1/A8/A7/E1/E8,
{16}8,1,2,3,{4}4,7,8,
{8}5,6,5,3,{16}4b,5,4,5,4b,5,4,5,
{4}4bxh[2:1],5xh[4:1],{16},3q5[0.1456##0.6553],2,1,{4}8,
,4,6,5,
4h[4:1],5-8b[4:1],{2}8-2v4b[2:1],
{16},,,,,,,,2,3,4,5,{8}3b,4b,
{4}2b,1,4,7,
{16}E3fh[4:1]/E7fh[4:1],,,,,E5/E1,,,{2}8b/4b,
{8}8,7,8,7,3,4,3,4,
2,4,2-7-5-3>2[2:1],7,5,2,4,3,
,,{4}6b/5b,{8}7b/4b,4,3,6/2,
{2}2bx/6bx,{4}4b/8b,Ch[4:1],
{16},,E3,E7,E5,B8,{8}Cf,{16},,,,,,,,1,
2,3,4,{32},,,,4b,3,2,1/8bx,,7x,,6xh[32:13],{4},,{16},,{8}4,
4,2,2,6,6,
8,8,8,8,1b,2,3,4,
{4}5<1b[8:1],1>5b[8:1],5-8b[8:1],8-2b[8:1],
2-5b[8:1],5-7-1-3-5b[2:1],{12},,,,,,,1w5b[12:5],
,,,,,,,,,,{1}3V51>8-4[2:3],
,{32}E5,
B5,,,,,,,,,,,,,,,,B1/B8,,,,,,,,,,,,,,,,Ch[32:55],
{4},,,{16},,,{32},B4h[32:23],
{4},,,{16},{32},B6/B3,B7/B2,B8/B1,
8bh[2:3],1bxh[32:47],{1},{4},,{16},,,{4}8b/1b,
{32}8/1,7/2,6/3,4/5,,,,,{16}3,6,,3,3,3,{8}3,{16}5,{32}6,5,{16}4,3,
2,1,{8}8,6/2,4,5,{16}4,3,2,1,{32},,3bx,2x,
1x,8x,{16}7x,,,{4}6,{32}3,4,3,4,{8}3,{32}E1,E2,E3,E4,,,,,E8,
E7,E6,E5,,,,,4bh[4:1],,,,,5bh[32:3],,,,,,,,,,,{4}6,
{8}5,6,5,4,5,6,5,{24}4,,3,
,,,{8}2,{4}2h[4:5],4h[8:1],5h[8:1],
7h[2:1],{16},,,,,,,,7b/2b,6/3,{8}5/4,
{32}8b/1b,7bx/2bx,6bx/3bx,4bxw8[8:1]/5bxw1[8:1],{4},,{16},,{4}2,
{2}1b-6-4b[4:3],{8}5,3,{16}7,7,{8}1,
,,{4}8b,,5,
{2}7b-4>7b[4:3],5bh[2:1],
{32},,,,,,,2,1,8,,,,,,,,,,,,,,,,,{16}1,,1,
,1,2,3,4/8,7,6,5,4,3,2,{32}1/8,7x,6x,5x,{16}4x,{32}3x,2x,{16}1x,
{12}5,6,3,2,3,3,{8}4,5,6,7,
8V24b[4:1],3/6,{4}5/8,,5-3-1-7v6-3b[4:3],
1/5,,,A3h[32:7],
{32}B3,B2/B4/C,B1/B5/C,B8/B6/B7,{8}E8/E7,{16},,,7h[16:5],,,,,,,,,,,{8}8h[8:3],
,,,,{4}6h[4:1],
3h[8:3],,,4h[8:3],
,,{2}2h[4:1],
{32}Ch[8:3],,,,,,,,,,,,,B5/B4,E5,A5/A4,,,,,,,,,A2/B2,E2/B1/A1,E1/B8/A8,E8/B7/A7,{8}E7/B6/A6,
{32},,,,A2/B2,E3/B3/A3,E4/B4/A4,E5/B5/A5,{4}E6/B6/A6,{2}Ch[4:1],
{8}6,,,5,,,{4}4,
{8}2b,2,3b,3,{12}4,4,4,2b,2,2,
{16}2,2,{8}2,{32},,,,,3/B3,2/B2,1/B1,B8,,,,,,,,,1,2,3,{8}4h[8:3],
{16},,,,,,7,8,1,2,3,4,5,6,7,8,
{8}6/1,5,6,7,,3,4,3,
2,8/1,4/5,6/7,{16}2/3,1,8,1,8,1x,8x,1x,
{2}8bh[32:13],{8}8x-4[8:1],8x-3[8:1],{4}8xqq6[8:1],
{8},7x-3[8:1],,,{4}8>4[8:1],4<8[8:1],
{8}8-2[4:1],,,2-4[8:3],,,{4}4-8[16:1],
{16}C,B8,{8}A8,{16}8x,8x,8x,8x,8x,8x,8x,8x,8x,8x,8x,8x,
{4}8bxw4b[8:1],{32},,,,,,,,,,,,,,,,4bx,3bx,{16}2bx,{32},,,,5bx,
6bx,{16}7bx,,,{4}1bx/8bx,,1bx/8bx,
{16}1bx/8bx,2bx/7bx,{32},,,,,,,,1bx/8bx,2bx/7bx,{16}6bx/3bx,{32},,,,,,,,8bx/1bx,7bx/2bx,{16}3bq8[8:1]/6bp1[8:1],{4},,,{16},,{12}4b/5b,
5/4,{48},,,,,,,{16}6b/4b-2[0.3641##0.2184],
,,,,{8}4-6[8:1],,4b,{24},,,,,,{12}4b,
4,,,,4,{4}4b,{16}4v6[8:1],3-7[0.6553##0.2185],{8}2v5v7v1b[1.0194##1.4563],
4b,,,3b,,,{4}2b,
{1},{4},,,{16}4,
4,{8}3,
3,,,2,,,{4}8,
{16}4,6,{8}2,{16},,,1,8,2,,,4,2,1,2,
4,3,2,1,8,7,{8}6,,,4,4,
8b/4b,,,3b/6b,,,{4}2b/6b,
{12},,,4,5,3,4,2,{3}3,
{96},,,,,,{32}1b,B1/E2/B2,B3/E4/B4,B5/E6/B6,{16}B7/B8/E8,{32},,,,,8b,B8/E8/B7,B6/E6/B5,B4/E4/B3,B2/E2/B1,{96},,,,,,,,,,,,,,,,,,{24}1,2,3,4,{96},,,,,,,,{32}7b,
6,5,4,3,2,1,8,7b,6,5,4,3,2,1,8bx,7bxq5b[2:1],6bx,5bxqq3[0.801##0.2913],4bx,3bxq1b[1.3107##0.5825],2bx,{16}1bxq7[1.8204##0.5825],{4}7bxp5b[2.3301##1.4563],
{1},,,,{8}4>2[8:1],
4<7[8:1],{4}4-8[1:1],,,,,{2}4bw8b[1:1],
{1},{32}1b/7b,
2/6,3/5,4h[32:21],{4},,,{16},,4,
5,4,5,{8}6/7b-5-3b[1:1],7,7,8,{4}3,
{12},,,,,,,,,4b,4b,4b,
{8}4b-7>4b[4:3],4b,4b,5,6,3,{24},,,,{12}E7/B6/E6,
{1}A6fh[2:1],
{12}6,6,,4,4,,2,2,,6,6,,8,
8,8,8,1,6,2,5,3,{48}4,,,3,,,{16}2,1/8,
7,6,5,4,{4}3h[2:1],,,{1}Ch[4:3],
{4}B1/E4/E2/E1/E8/E7/E3/E5/C/B4/B5/B6/B7/B2/B8/B3/E6,{16}4b,,,4,{4}3,4,
4,{8}4b,3b,{16}5bx,5bx,5bx,5bx,{4}5bx,
{8}4w8[2:1],5,{4}4,{8}Cfh[16:1],{16},,,,4b,4,
{4}4,{16}4,4,,,4,4,,4,,,,,{4}4/5,
{16}4,5,,,4,5,,,{8}4,5,
{16}4,5,4b,5,4,5,4b,5b,{2}4bV26[4:1],
4,4,
{4}4/8-5b[2:1],8>1v4b[4:1],{8},,,,4,
3,4,5,{4}4b-6-1b[8:1],{32}E5,E6,B6,B1/Cf,{8}A1f,
{16},,,,,,,,,,,,5,4b,{8}5,
{32}4b-7>4b[4:1],,,,,,,,,E5/B5,B6/E7,E8/B8/E1,E1,E2,E3,E4,{4}A4f,{8}4b/5b,4bw8b[4:1]/5bw1b[4:1],
,,,,,,8,8,
{4}8,{24}6,6,{96},,,,,,,,,,,,,,,,{32}5,5,{96},,,,,,,,,,,,,,,,,,{24}4,4b,,,,,{8}3,
4,3,2,3,2,{4}1,
8b/1b,{8}2b,6bx/3bx,{4}5bx/4bx,{32}4b,5,6,7,,1/8h[32:27]/E2,2/B2,3/B3,
,4h[32:23]/E4,{4},,,{16},3bx/7bx,3bx/7bx,
{12}3bx/7bx,{24}3p5<8[0.7281##4.199]/7p8>5[0.7281##4.199],3h[8:19]/7h[8:19],
E
