&title=そばにいていいよ
&artist=花譜
&first=-1.05
&des_1=二人は記憶の中で生きている。私はそれを胸に生きていくしかない。
&des_2=二人は記憶の中で生きている。私はそれを胸に生きていくしかない。
&des_3=二人は記憶の中で生きている。私はそれを胸に生きていくしかない。
&des_4=二人は記憶の中で生きている。私はそれを胸に生きていくしかない。
&des_5=二人は記憶の中で生きている。私はそれを胸に生きていくしかない。
&lv_5=14+
&des_6=二人は記憶の中で生きている。私はそれを胸に生きていくしかない。
&lv_6=14+
&des_7=二人は記憶の中で生きている。私はそれを胸に生きていくしかない。
&des=二人は記憶の中で生きている。私はそれを胸に生きていくしかない。
&inote_6=(84)
{8},,,,,,,,
{8}5h[8:2]/4h[8:4],,,,6h[8:4],,,,
{8}3h[8:4],,,,4-6[8:1],,,,
{8}7h[8:2]/4h[8:4],,,,6h[8:4],,,,
{8}5h[8:4],,,,7-4[8:1],,,,
{8}3h[8:2]/5h[8:4],,,,2h[8:4],,,,
{8}4h[8:4],,,,3-8[8:1],,,,
{8}7h[8:2]/1h[8:4],,,,8h[8:4],,,,
{8}3h[8:4],,,,1s5[8:1]*s5[8:1],,,,
{8}3<5[8:2],,5<7[8:2],,7>1[8:2],,1>3[8:2],,
{8}3<7[8:4],,,,7>1[8:2],,,,
{8}6>3[8:3],,4>1[8:3],,2<7[8:3],,8<5[8:3],,
{8}6>1[8:5],,,,2<8[8:2],,,,
{8}4<7[8:3],,6<1[8:3],,8>3[8:3],,2>5[8:3],,
{8}4<1[8:5],,,,8>2[8:2],,,,
{8}5>3[8:2],,3>1[8:2],,1<7[8:2],,7<5[8:2],,
{8}5>3[8:2]*>2[8:3]*>1[8:4]*>8[8:5],,,,,,,,
(168)
{8}3h[8:4]/7h[8:4],,,,,,5h[8:4]/6v4[84#8:2],,
{8},,,,7h[8:2],,,,
{8}5h[8:4]/1h[8:4],,,,,,3h[8:4]/2v4[84#8:2],,
{8},,,,1h[8:2],,,,
{8}8qq8[84#8:3],,,,1h[8:2],,,,
{8}1pp2[84#8:3],,,,7h[8:2],,,,
{8}7<4[84#16:3],,,4q8[84#16:3],,,8q6[84#16:4],,
{8},,,,,,,,
{8}8h[8:4]/4h[8:4],,,,,,6h[8:4]/7v2[84#8:2],,
{8},,,,8h[8:2],,,,
{8}1h[8:4]/3h[8:4],,,,,,4h[8:4]/2v5[84#8:2],,
{8},,,,6h[8:2],,,,
{8}8pp7[84#8:3],,,,8h[8:2],,,,
{8}5qq6[84#8:3],,,,5h[8:2],,,,
{16}8-4[84#16:10],,,,,,,,,,,,,,,,
{16}3h[16:16],,,,,,,,,,,,,,,,
{8}6<1[8:1],5,4,3-6[8:1],2,1,8>3[8:1],7,
{8}6,5,46,37,1-4[8:1]/5-8[8:1],,15,,
{8}2<7[8:1],3,4,5-2[8:1],6,7,8<5[8:1],1,
{8}2,3,42,51,7-4[8:1]/3-8[8:1],,73,,
{8}5-1[8:1],6,5,8-4[8:1],7,8,5-2[8:1],6,
{8}5,8,37,26,1-4[8:1]/5-8[8:1],,15,,
{8}1-5[8:1],2,1,4-8[8:1],3,4,1-6[8:1],2,
{8}1,5,48,37,2-5[8:1]/6-1[8:1],,26,,
{8}4,4-7[8:1],4,4,4-1[8:1],4,4,4-7[8:1],
{8}4,4,4-1[8:1],4,4/1>4[8:1]*<6[8:1],,,,
{8}5,5-2[8:1],5,5,5-8[8:1],5,5,5-2[8:1],
{8}5,5,5-8[8:1],5,5/8w4[8:1],,,,
{8}1,1<6[8:1],1,1,1>4[8:1],1,1,1-6[8:1],
{8}1,1,1-5[8:1],1,1/5-2[8:1]*-8[8:1],,,,
{8}37,37,37,26,26,26,1-5[8:2]/5s1[8:2],,
{8},,,,1b,,,,
{16}1-4[8:1]/2,,8,,17,,,,6,5,6,5,4,3,2,1,
{16}8-5[8:1]/7,,1,,82,,,,
3,4,3,4,5,6,7,8,
{16}2,3,4,5,8,7,6,5,
1,2,3,4,7,6,5,4,
{24}1,2,3,8,7,6,
1,2,3,8,7,6,
2,3,4,5,6,7,
2,3,4,5,6,7,
{16}1-5[8:1]/8,,2,,13,,,,
3,4,3,4,
{24}2,3,4,5,6,7,
{16}8-4[8:1]/1,,7,,86,,,,
6,5,6,5,
{24}7,6,5,4,3,2,
{16}18,,,,{24}3,4,3,5,,,
{16}26,,47,,{24}6,5,6,4,,,
{16}18,,,,{24}3,4,3,5,,,
{16}26,,47,,{24}6,5,6,4,,,
{16}1-6[8:1]/2,,8,,17,,,,5,4,3,2,13,4,5,6,
{16}8-3[8:1]/7,,1,,82,,,,4,5,6,7,68,5,4,3,
{16}2,1,3,8,4,7,5,6,
8,7,1,6,2,5,3,4,
{24}8,7,6,5,4,3,
1,8,7,6,5,4,
2,1,8,7,6,5,
3,2,1,8,7,6,
{16}4-7[8:1]/5,,3,,42,,,,
2,8,2,8,
{24}2,3,4,5,6,7,
{16}8-3[8:1]/1,,7,,86,,,,
6,4,6,4,
{24}6,5,4,3,2,1,
{16}8w4[8:8]/7,,,,,,,,
,,,,,,,,
{16},,,,,,,,
8b,,,,,,,,
{24}1/7h[8:1],2,3,4,,,{24}4>2[8:1],5,4,6,,,
{16}6,,7,,
{24}8,1,8,2,,,
{24}8/2h[8:1],7,6,5,,,{24}5<7[8:1],4,5,3,,,
{16}3,,2,,
{24}1,8,1,7,,,
{24}28,3,4,5,,,{24}5>3[8:1],6,5,7,,,
{16}7,,8,,
{24}1,2,8,2,,,
{24}71,6,5,4,,,{24}4<6[8:1],3,4,2,,,
{16}2,,1,,
{24}8,7,1,7,,,
{24}1>4[8:1]/6,,,,,,
1/5,6,7,8,,,
3>8[8:1]/8,,,56,,,
3/8,7,6,5,,,
{24}5<8[8:1]/2,,,,,,
5/1,2,3,4,,,
7<4[8:1]/4,,,12,,,
7/4,3,2,1,,,
{24}1,2,3,4h[8:1],,,
8,1,2,3h[8:1],,,
1,,,2,,,
3,4,3,4,,,
{24}8,7,6,5h[8:1],,,
1,8,7,6h[8:1],,,
8,,,7,,,
6,5,6,5,,,
{24}1/7h[8:1],2,3,4,,,{24}4>2[8:1]/6,7,5,7,,,
{16}6,,7,,
{24}8,1,8,2,,,
{24}8/2h[8:1],7,6,5,,,{24}5<7[8:1]/3,2,4,2,,,
{16}3,,2,,
{24}1,8,2,1,,,
{24}28,3,4,5,,,{24}5>3[8:1]/6,7,5,7,,,
{16}7,,8,,
{24}1,2,8,1,,,
{24}71,6,5,4,,,{24}4<6[8:1]/3,2,4,2,,,
{16}2,,1,,
{24}8,7,1,8,,,
{24}1,8,1,{16}8,2,
{24}8,1,8,{16}1,7,
{24}1,2,3,4,5,6,
{24}8,7,6,5,,,
{24}5,4,5,{16}4,6,
{24}4,5,4,{16}5,3,
{24}7<1[24:6],6>1[24:5],5>1[24:4],4>1[24:3],3>1[24:2],2<1[24:1],
{24}7,,,,,,
{8}8-4[16:13],,,,,,,,
{8},,,,,,,,
{12}1V72[8:8],,,,,,,,,,,,
{8}2-6[8:8],,,,,,,,
{8}6-3[8:8],,,,,,,,
{8}3-5[8:8],,,,,,,,
{8}8-3[8:8],,,,,,,,
{8}4v5[8:8],,,,,,,,
{12},1-5[16:15]*-5[16:15],,,,,,,,,,,
{8},,,,,,,,
E
