&title=インフェルノシティ
&artist=Ponchi♪ feat. はぁち
&first=0
&des_5=szhzy
&lv_5=14+
&des=szhzy
&clock_count=4
&inote_5=(215)
{1},
{4},,,8x-5b[16:1],
{8},B5,B4,B3,B2,,,E5,
{8}E4,E3,E2,,,,,,
{8},B4,B5,B6,B7,,,E5,
{8}E6,E7,E8,,,Ch[4:1],,,
{8},4/E6,4,4,4,3/E8,3,3,
{8}3,6/E2,6,6,6,7/E4,7xh,7,
{16}7xh,,4,6,4,6,3,7,3,7,2,8,2,8,1,7,
{48}1,,,7,,,1x,,2,,3,,4,,5,,6,,7,,8,,1,,2,,3,,4,,5h[8:1]/Ch[8:1],,,,,,,,,,,,,,,,,,
{8}5h[8:1]/3h[8:1],,26,17,2h[8:1]/8h[8:1],,37,46,
{8}7h[8:1]/5h[8:1],,46,35,26,18,2-5[8:1]/7,26,
{8}7-3[8:1],7,1-5[8:1],1,4-7[8:1],4,1,1,
{16}2bh[8:1]/8xh[4:1],,,,3x,4,5,6,2x,3,4,5,1x,2,3,4,
{8}5xh[8:1]/7h[8:1],,84,13,8h[8:1]/2h[8:1],,73,64,
{8}3h[8:1]/5h[8:1],,64,35,24,25,1/6-1[8:1],16,
{8}2-5[8:1],2,7-4[8:1],7,8-3[8:1],8,6x,6x,
{16}8bh[8:1]/2xh[4:1],,,,7x,6,5,4,8x,7,6,5,1x,8,7,6,
{8}2-4[12:1],1,2,,7-5[12:1],8,7,,
{8}1pp4[2:1],8,7,6,5h[4:1],,,,
{8}6-1[8:1],5,6,,3-8[8:1],4,3,,
{8}7h[4:1],1h[4:1],,6,43,25,1h[8:1]/6h[8:1],,
{8}7x-5[12:1],8x-4[12:1],7,8,1x-5[12:1],2x-4[12:1],1,2,
{8}6xqq8[2:1],3xh[8:1],,2,1h[4:1],,,,
{8}2bx>8[8:3],,,8bx>4[4:1],,4bx<8[4:1],,8bxq8<4[8:5]*q8>4b[8:5],,,,,,,,,
{8}2-5[8:1],1,2,8,7-4[8:1],8,7,1,
{8}28,3h[8:1]/7h[8:1],,46,3/5h[8:1],2,4h[8:1]/6,7,
{8}1>4[8:1],8,7,6,5<8[8:1],4,3,2,
{8}1h[4:1],8,7-5[12:1]*-4[12:1],6,7x-1[12:1]*-2[12:1],,7x,,
{8}3x/5x,3x/5x,26,26,71,71,2-5[12:1]/8h[8:1],2,
{8}7-4[12:1],7,1-5[12:1],1,8-4[12:1],8,2,2,
{8}1,1x-5b[12:1],8x-6[12:1],1x-3b[12:1],8x-4[12:1],1x-5b[12:1],8x-6[12:1],1x,
{8}8x,4x>1<6[2:1],,1<6>3[2:1],,6>3[4:1],,3,
{8},1-6[8:1],2-5[8:1],1,2,,7-4[8:1],68,
{8}7,,1,8-6[8:1]*-5[8:1],1,8-2[8:1]*-3[8:1],,8,
{8},6,7-5[8:1],8,7-1[8:1],,7-3[8:1],,
{8}7,,1,1-5[8:1]/8-4[8:1],27,18,,,
{8},83,2,1,8-5[8:1]/2-6[8:1],,8-4[8:1]/2-5[8:1],,
{8}82,,1,2,3,4-8[8:1],,4/8>6[16:9],
{1},
{8},Ch[16:9],,,,,,,
{24},,,7b/2b,3,4,5,6,7,8,1,2,3,4,5,6,7,8,1,2,3,4b/7b,6,5,
{24}4,3,2,1,8,7,6,5,4,3,2,1,8,7,6,52,,,3,,,5,,,
{16}4,,6,5,6,5,47,,,,8,,3h[8:3],,1>8[2:1],,
{8},1,,,1,1,,2,
{16},,3,4,3,,45,,6,,2,,7,,1,,
{16}8,2,8-3[8:1],1,7,1,8bx,,,,,,,,1-5[12:1],,
{8},1/E7h[4:1]/B7h[2:1]/B6h[2:1],,,,,,E3h[4:1]/B3h[2:1]/B2h[2:1],
{16},,,,,,,,,,57,,,,7,5,6,4,5pp1[8:5],,3,,53,,,,,,,,,,
{8},,,1b/2b,1b/2b,3b/8b,3b/8b,4b/7b,
{8}4b/7b,5b/6b,5b/6b,4b/5b,4b/5b,,,4/7h[8:1],
{16},,5b,7,6,7,6,7,4b,6,5,6,5,6,3b,5,
{16}4,5,4,5,2b,4,3,4,3,4,1b,3,2,3,4,5,
{16}6,7,18,2,3,4,56,,5/7-3[12:1],,,,7/1-5[12:1],,,,
{8}1/8-4[12:1],,8/2-5[12:1],1,2/7-3[12:1],8,7/4-8[8:1],4,
{8}4p1[1:1]*q7[1:1],A8,,,,,,,
{8},,,,,Ch[8:1],2x-4[12:1]b,,
{8}2/7-1[12:1],6,75,4-8[8:1],,4,7-5[12:1]b,,
{8}7/2-8[12:1],3,24,5-1[8:1],,5,3-1[12:1]b,,
{8}3/6-4[12:1],7,68,1-5[8:1],,1,8-5[12:1]b,,
{4}8/2-5[12:1]b,2/4-8[12:1]b,4/1-5[12:1]b,1w5[12:1]b,
{8}1>8[8:3]`C`B4/B5/B6,,7x,7xh[4:1],,,,1x/2x,
{16}1x/2x,8,7,6,5,4,2x,3,4,5,8x-3[8:1],7,6,5,8-5[8:1],,
{24},,,8,,,,,,1,,,18,2,3,4,5,6,,,,8,,,
{24}18,7,6,5,4,3,,,,,,,,,,7,,,8,,,7,,,
{8}2-5[8:1],2,8-4[8:1],8,3-8[8:1],3,6-1[8:1],6,
{16}2x,3,4,5,2x,3,4,5,16,,27,,8,,2,1,
{24}3,8,,2,,,2,,,3,,,3h[4:1],,,8,7,6,5h[4:1],,,1,,,
{16}1,,,,,,,,6,4,6,4,6,4,7,3,
{16}7,3,8<5[8:1],,,,4,3,2,1,8,7,6,5,1,,
{24}8<5[12:1],,,,,,4,3,2,1,8,7,6,5,4,37,,,,,,15,,,
{16},,1b,2,1,2,1,,4b,6,5,6,4,,7b,8,
{32}6,,1,,5,,,,3b,,4,,2,,5,,1x,8,7,6,5,4,3,2,17,,,,,,,,
{16}8-4[8:1],,3-8[8:1],,8,,3,,,,51,62,73,84,5-2[12:1]/1,,
{16}5,,6-1[8:1],,6,,4,,,,48,37,26,15,4-7[12:1]/8,,
{16}4,,3-8[8:1],,3,,5,,,,51,62,73,84,5/1h[8:1],,
{24}2b,3,4,5,,,7b/8b,6,5,4,,,8b/2b,3,4,5,,,1b/7b,6,5,4,,,
{24}1b/2b,38,47,56,,,,,,1b/8b,27,36,45,,,,,,3h[8:7],,,4>7[24:5],,,
{24}4,,,,,,,,,6,5,4,,2,1,8,,,,,,2,3,,
{16}4,5,7,6,5,4,1,,24,,,,8<1[2:1]*z4[4:1]/6,,,,
{8}8b,,,,,,1w5[8:1],,
{8}1/Cf/B4/B5/B6,,,3-8[8:1]*-1<8[8:1],,3-6[8:1]*-5<6[8:1],,3,
{16}1,,,,78,,7h[8:3]/8,,,,,,3,4,5,6,
{16}7,8,15,,,,83,,8-5[8:1]*-6>5[8:1]/2,,,,8-3[8:1]*-2>3[8:1],,,,
{16}8,,,,46,,47,,,,,,,3,5,2,
{48}6,,,1,,,7,,,,,,,,,18,,,,,,,,5`7,,,,,,,,3`6,,,,,,,,12,,,,,,,,3`7,
{48},,,,,,,34,,,,,,,,7`8,,,,,,,,46,,,,,,,,18,,,,,,,,3`5,,,,,,,,4`8,
{48},,,,,,,2bqq5[96:67]/7bpp4[96:67],,,,,,,,,,,,,,,,,,,,,,,,,,,,,,,,,,,,,,,,,
{32},,,,,,,,,,,,,,,,,E6h[32:19]/A5h[32:63]/D6h[32:43],,,,,,,,,,,E2h[4:1]/A1h[8:13]/D2h[1:1],,,,
{1},
{1},
{28}15,26,37,48,5/1h[28:38],6,7,8,,2,3,4,5,6,7,8,,2,3,4,5,6,7,8,,2,3,4,5,6,7,8,,2,3,4,5,6,7,8,,2,3,4,5,6,7,8,1,26,,,,,,,
{8}4hx[8:1]/6x,6x,73,82,7h[8:1]/1,1,62,53,
{8}2h[8:1]/4,4,53,64,73,81,7-4[12:1]/2,6x/3,
{8}7x/2-5[12:1],2,2x/8-4[12:1],8,8x/1-5[12:1],1,1x/8,7,
{16}4bxh[8:1]/6bh[8:1],,,,7,5,7,5,6,4,6,4,5,3,5,3,
{8}4xh[8:1],2x,15,86,1h[8:1]/7,7,26,35,
{8}6h[8:1]/4,4,35,64,75,74,8/3-8[12:1],38,
{8}3x/7-4[12:1],7,7x/2-5[12:1],2,2x/1-6[12:1],1,1x/3,2,
{16}1bh[8:1]/7bxh[8:1],,,,2,8,2,8,3,7,3,7,4,6,4,6,
{16}3,5h[16:25],,,,,1,,2,,,,,,B4,,,,,,,,E8,,E2,,Cf,,,,3x/7x,,
{8},48,48,37,37,26,26,15,
{48}15,,,,,,8,,,4,,,8,,,4,,,8,,,4,,,1,,2,,3,,5,,6,,7,,2w6[8:1],,3,,4,,7,,8,,1,,
{1}2b/Cf,
{1},
{1},
E
