&title=Adonis
&artist=M2U
&first=0.071
&des=Sougetsu030
&lv_5=13+
&des_5=Sougetsu030
&inote_5=
(140){4},{1},{4},,,{32}1bp6[8:11]*q4[8:11],
2/8,7/3,6/4,{8}5,,,,,,,,,,,,,,5/3,
{2}5h[8:3]/3h[8:3],{4}4/6pp8[4:1],8<4[4:1],
{8}2h[2:1],{16},,,,E6,E7,{8}E8,{16}E2,E3,E4,,,7,
{4}7/1>2-6>5-1[16:9],6,7,8,
{16}8<7-3<4-8[2:1],,,2,2,,,1,{4}1,{16}1,2,3,4,
{8}6h[16:1],5h[16:1],4h[16:1],3h[16:1],7h[16:1],6h[16:1],5h[16:1],4h[16:1],
8h[8:1],7h[8:1],6h[8:1],5h[8:1],4h[8:1],3h[8:1],2-6b[16:1],1,
8h[8:5]/A2f,{32},,,,,,,,2x,3x,{16}4xh[16:9],{32},,,,,,,,7x,6x,{16}5xh[16:7],,,,3,
2,1,8,7,6,5,8,7,6,5,{4}4/1-5[16:1],
8/1bV74[4:1],{8}4,3,{4}2<5[4:1],8bxh[8:3],
{16},,,,3,1,3,1,2,8,3,7,4-2[16:1],6,{8}5,
4x/7-5[16:1],{16}8,1x,{8}7,{16}3,4x,{8}2,{16}2,1,3,8,4,7h[16:3],
,,{8}5,2/1,4/3,8/7p4b[16:5],5/6,{4}7/1,
8V25[4:1],{8}5,6,{4}7>4[4:1],1bxh[8:3],
{16},,,,6,8,6,8,7,1,6,2,5-7[16:1],3,{8}4,
2/5x,{16}2,1,3,8,4,7,2>5[16:1],5,,8,{8}2,{16}8,8,
1b/7bx,,,6b/4b,,,{8}5b/2b,{16}8w4b[16:1],8bx,,7x/1x,{4}8bx,
{16}6b/2b,,,5,{8}E2/B1,6,{16}B3/E3,5,,5,{8}E2/B1,6,
{16}3/E7/B6,,,4,{8}E8/B8,{16}3,3,E7/B6,4,,4,{8}E8/B8,3,
{16}7/E3/B2,,,8,{8}E4/B4,7,{16}E3/B2,8,,8,{8}E4/B4,7,
{16}2/E7/B7,,,1,{8}E6/B5,{16}2,2,E7/B7,1,,1,{8}E6/B5,2,
7b/4b,{16}6,5,,5,{8}4,{16}4,3,,3,{8}1-5[16:1],2,
3,{16}3,4,,4,{8}5,{16}5,6,,6,{8}8-4[16:1],7,
{16}7-3[16:3],,,3>8[16:3],,,{8}8<5[16:3],{16},4,,,{8}2,3,
4b/6b,{16}3,5b/3bx,,7,{8}1b/7bx,{16}2,8/2x,,6
||这是一个标记~
,{32}4/6x,3,2,1,8,7,6,5,
{16}4b/8xh[8:1],,,5/8h[8:1],,,{8}6/8h[8:1],{16},7/8h[8:1],,,{8}1/8,2,
{16}3/4h[8:1],,,5/4h[8:1],,,{8}6/4h[8:1],{16},7/4h[8:1],,,{8}8/4,7/5,
6h[8:1],{16}5,7h[8:1],,4,{8}8h[8:1],{16}3,1h[8:1],,2,{8}1,4/3,
3h[8:1],{16}4,2h[8:1],,5,{8}1h[8:1],{16}6,8h[8:1],,7,{8}8,6/5,
5>2[8:1],{16}8,8,,6,{8}6,4<7[8:1],{16}1,1,,3,{8}3,
4h[16:3],{16}8,8h[8:1],,5,7,3,{8}5h[16:3],{16}1,1h[8:1],,4,2,6,
{8}4h[8:1],{16}5,4,,6,6,5,{8}7xh[8:1],{16}1,8,,2,2,1,
{8}3xh[16:3],{16}7p4[0.4286##0.6429],7,,,{8}C,E1,{16},E2,,,{8}E3,
{16}3b,4x,3,5,4,5,3,4,3,5,4,5,4,3,2,1,
7,8,7,1,8,1,7,8,7,1,8,1,8,7,6,5,
2,4,2,5,3,5,4,6,4,7,5,7,5,4,3,2,
6,8,6,1,7,1,8,2,8,3,1,3,1,8,7,6,
2,3,4,8,7,6,3,2,7/1,6,5,1,2,3,6,7,
3/8,2,1,5,6,7,2,3,6/4,7,8,4,3,2,7,6,
2/5,3,4,5x/3x,4,5,{8}6x/4x,{16}7x,6x,5x,4x/6x,5,4,{8}3x/5x,
{16}1,8,7,6,8,7,6,5,7,6,5,4,{8}7-4[16:1]/3-8[16:1],4/8,
{64}7b/3b,Cf,,,,,,,,,,,,,,,{4}2xV48V62[4:5],B1,B7,
B5,E4,E1,E6,
7xV51V37b[4:5],B8,B2,E4,
E6,E1,E4,{8}6/4,3/5,
{16}2b>5[8:1],1,,1,{8}2,6,{16}7<4[8:1],8,,8,{8}7,3,
{16}3b>8[8:1],5,,5,{8}3,6,{16}6,4,,7,{8}1-5[16:1],8/2,
1b,{16}7,7,4-8[16:1],5,{8}3,4b/2,{16}1,1,7,8,{8}7,
{32}7bx/8,6,{16}5,{32},,1bx/8,2,{8}3,{32}8bx/1,7,{16}6,{32},,2bx/1,3,{8}4,{32}6bx/8,5,4,3,2,1,8,7,
{8}6b/2b,{16}2,1,3-1[16:1],8,{8}4,{16}3-5[16:1],6,,8,{8}3,7
||这是一个标记~
,
1/7,{16}6,5,7-5[16:1],4,{8}8,{16}7-1[16:1],4,,2,{8}7,3,
5/3,{16}3,4,2-6[16:1],5,{8}1,{16}2>5[16:1],8,,8,{8}2,7,
4/7,{16}6,5,7-3[16:1],4,{8}8,{16}7<4[16:1],1,,1,{8}7,2,
{32}8bh[8:1]/E3f,E4,E5,E6,,,{16}8h[8:1],,,{8}7x/1x,{32}1bh[8:1]/E7,E6,E5,E4,,,{16}1h[8:1],,,{8}3x/5x,
{32}5bh[8:1]/E3f,E2,E1,E8,,,{16}5h[8:1],,,{8}6x/4x,{32}4bh[8:1]/E7,E8,E1,E2,,,{16}4h[8:1],,,{8}3/7,
{32}6b,5,{16}4h[8:1],2,2,,8,2,1,{32}3b,4,{16}5h[8:1],7,7,,1,7,8,
{32}6b,5,{16}4h[8:1],2,2,,7,3,1,5bh[8:1],,,6h[8:1]/4h[8:1],,,{8}1/8,
6b/3b-6[16:1],{16}2,7,{8}3>8[16:3],8,{16}8,7,6,5,{8}4,{16}1,1,
{8}6b-3[16:1],{16}7,2,{8}6<1[16:3],1,{16}1,2,3,4,{8}5,7/3,
2b/8b-4[16:1],{16}7,1,{8}8V25[16:3],1x,{16}5,6,7,8,{8}1,7/3,
6b/4b-8[16:1],{16}3,5,{8}4V61[16:3],5x,{16}1,2,3,4,{8}5,7/3,
{16}3,4,3,6,5,6,2,2,7,8,7,2,1,2,6,6,
3,4,2,6,5,7,1,1,8,6,7,1,3,2,5,5,
3,7,5,7,1,7,3,7,3,5,3,1,3,7,3,5,
{32}3b,2,1,8,,,6b,5,4,3,,,{8}1,{32}1b/8b,2,3,4,,,7b,6,5-1b[16:1],4,,,5x/1xp7[2:3],2/6,3/7,4/8,
{1}1b/Cf/B5/B1/5bp3b[8:11],
{4},,,{16},,,{32}E3,E4,
{4}E5,{16}8,1,7,8,{8}6h[8:1],{16}5,6,4,5,3,4,
{8}2h[8:1],1V75-3[16:5],2,3x,{16},,,,E1,E8,E7,E6,
{8}E5,{16}8,8,,,4,5,3,4h[8:1],,3,5,4,6,5,
{8}7h[8:1],8<1-5[8:7],7,6x,{24},,,,,,,,,8,7,6,
{1}5>4-8>1-5b[8:7],
E
