&title=Wish upon Twin Stars
&artist=xi
&first=-0.2
&lv_5=14.6
&des_5=yi
&inote_5=
(200){4},{8},,,,4,5,
6,{16}E7,B6,{8}B5,4,{2}4h[4:1],
{24}A3,E3,B2,B1,,,{8}6,6,,2,,5,
{32},,,,3,4xh,,,,,,,{8}2,{32}4,5h,,,,,,,{8}8,6`5h[16:9],
,,,6,{16}4,3,2,1,8,7,6h[8:1],4,
3,2,{8}1/6,6,6,6,{16}6,4,,4,{8}5,
5,5/3,3,3,5,{16}5,4,,4,{8}5,
5,2bx,{16}6,5,{8}7,1bx,{16}5,4,{8}6,8bx,
{16}3,2,{8}4,5/1x,6/2x,{16}7/3x,8,1-5[8:1],2,3,4,5bx<7>1z5[8:17]/1bx>3<5z1[8:17],Cf,
{1},,{4},{8},{16}E2,
B2,B3,E4,{8}5-8[16:3],,,4,
,,4,,4,{4}6-8[8:1],
{8}6,4,{16},,1x,8,7,6,4,3,{4}2q7[4:1],
5,{8}5,8,,1/6,2,6,
5,2x,{16}4x,3,{8}4,1x,{16}6x,5,{8}6,{16}4x,3,
2,1,5x,6,7,8,4,3,2,1,5,6,7,8,{8}1/3h[4:1],
,1,2,8,7x/3bx,7/3bx,{16},,6/4,7,
8,1,{8}2/4v6[8:1],4,2-7[8:1],2,{16}B6,B5,B4,B3,8,7,
6,5,{8}3/4,4/2,{16}1,2,3,4,{8}5/6,{4}7-4[8:1]/5>2[8:1],
7/5,{16}1,5,2,6,3,7,4x,5,6,7,4x/8x,1/5,
2/6,3/7,{8}8/4x-8[8:1],,4x,{4}7x-3[8:1],{8}7x,1xw5[8:1],
,,,3x,{16}7,6,{8}5/4,{12}2,5,{24},,{8}3/4,
5-8[8:1],2-5[8:1],5,2,7h[8:1],6,4h[8:1],
{16}5,6,{8}3-8[8:1],7p5[4:1],3,{4}7,{8}1,2,
3,4-8[8:1]*<7[8:1],,4,{16},,1,7,2,6,3,5,
{4}4bx,{12}3h/6h,,7h/4h,,8h/5h,{48},,,,{16}7h/3h,,,6h/4h,
,,{8}5h/3h,{16}1,8,{8}2,3/5,{16}6,7,{8}5,{32}4/8,B8,C,B4,
,,,,,,,,,,,,{8}6h[4:1],{16},,3h[16:5],7,8,1,{8}2,
{16}4,5,{8}6/2,{16}3,4,{8}2,1/7,{16}6,7,{8}5,{32}8/4,B8,C,B4,
,,,,,,,,{8}5/3,{16}4,6,4,6,{8}3bx/5h,{16},2b/4h,,,{8}1b/3h,
2b/8h,{16}6,5,{8}6,7/2,{16}3,4,{8}3,{32}6/2,E7/E3,E8/E4,E1/E5,
,,,,,,,,,,,,{8}8h[4:1],{16},,4h[4:1],1,2,3,,5,
6,7,8/4bx,5/1,6/2,7,8,1,2/6bx,3/5,4,3,2,1,8/4bx,7/5,
{4}6,{8}4,4,{16}5,6,{8}7,{4}1-5[8:1]/8-4[8:1],
{8}1/8,{16},,,,4,5,4,5,3,6,2,7,1,6,
1,5,{8}2,2/6h,3/7h,4/8h,7/5,{4}5v2[8:1]/7-4[8:1],
5/7,{16}1,5,2,6,3,7,4,3,2,1,8,6,
{8}8,1/5,{16}3,4,{8}3,6/2,{16}8,7,{4}8w4[8:1],
{8}8b-2-4-6v1<7<5[8:11]*>6b[8:5],,,,,Cfh[32:1],,,,3b,
{16},,,,,,3,3,{8}4,{16}2,2,
{8}6,3h[8:1],{16}6,7,{8}8,2h[8:1],{16}1,8,7,6,{8}5/1,
{4}4/3,{8}2-5[8:1],4-8[8:1],2,4x,{16},,3b,7,
4,8,5,4,3,2,1,8,7,6,8/5,1,2,3,4,5,
6,7,4,6,3,5,2,4,1,8,1,,2/6,3,4/5,6,
3/7,8,{8}1/2,{16}2-6[8:1],1,3,1,{4}2b,8-5[8:1]/5-2[8:1],
8/5,{8}1>4[16:1],1,{24}5,6,7,8>4[8:1],,,5,6,7,8x<5[8:1],,,,,,8/5,
4,3,2,1,8,7,,,4,3,2,1,8,7,{8}6/4,{16}3,5,
{4}2>5[8:1],{16}6/2,7,{8}8h[4:1],,4,4,{16}8,7,
6,5,{8}2v5[8:1],2,6v8[8:1],6,4,{16}4,3,2,1,
7,6,{8}5/8>3[8:1],5<8[8:1],8,5,{16}4,5,6,7,8,1,
2,3,{8}4x/8h,4x/8h,3x/7h,3x/7h,2x/6h,2x/6h,1bx/5bh,
{4}1bx/5bh[8:3],8h[8:1],{16}1,2,6,7,2,3,7,8,
3,4,{8}5/1<6[8:1],1,5>2[8:1],{4}5,7V53[8:1],
{16}7/3,2,1x,8,7,6,5/1,4/8x,3/7x,2/6x,5x/1x,4x,{24}3x,2x,1x,8-4[8:1],7x,6x,
{8}5x,8,{16},,3,4,{4}5/2h[4:1],{16}4>1<7[16:3],5,6,7,
{4}4/8h[4:1],{24}6,5,4,3,2,1,{8}8h[4:1],5h[8:1],,,1/6,
{16}8,7,8<5[8:1],7,{8}1h[8:1],8,2h[8:1],{16},,3,4,
3<7>8>1[4:1],4,{24}2,B2,C,A3/B6,A4,A5,A6,A7,A8,{4}A1/5x<3b[2:1],7h[4:1],
{8},7x<1b[2:1],,,,1<6b[4:1],,,{4}3,
{64}4,5h,,,,,,,4,5h,,,,,,,3,6h,,,,,,,2,6h,,,,,,,,,,,3,7h,,,,,,,,,,,4,
8h,,,,,,,4>1z5-2<8b[8:13],8<5z1-6>4[8:13],{1},{4},,,{16},,,{32},{8}E5h[4:7],
,E1,,E2,,E3,
,E4,,E6,,E7,,E8,
,E1h[4:7],,E5,,E4,,E3,
,E2,,E8,,E7,,E6,
,5xh[4:1],,,4,5,,4/6,
,3x,,2x,,7,{16},,8x/1x,2x,
3x,4x,{8}5bx/8bx,{16}6,4,{8}7,5bx/2bx,{16}3,4,{8}1,7b/2b,
{16}3,5,{8}4,6b/5b,{16}2,8,3,6,4b,5,3,6,1,5,
2b,4,1,8,1,7,3b,6,4,5,4,6,8b,7,1,6,
2,5,4b,6,3,7,2,8,3b,4,1,5,2,6,3b,7,
4,8,{8}5x,5/8,7,6x,{16}4,5,,5,{8}3,
6,5/2,3,3,4x,{16}6,5,,5,{8}6,
4,{16}2bx,8,1,8,2,7,4bx,6,5,7,4,8,{24}3b,A2,A1,
A8,A7,A6,A5,,,{8}7bx/3bxh,4b-1[8:1]/8b-5[8:1],8b/4b,4bV28-3q5[8:21]/8bV64-7q1b[8:21],{1},,,{16}8/4,
3/7,6/2,5/1,
{4}8/4-6-8[8:1],{32}8,1,2,3,{8}4h[4:1],,8,{16}5/8,4,3,2,
1,8,{8}6v4[8:1],6,7>3[8:1],7,5,{16}5,6,7,8,
1,2,{8}4V63[8:1],4,2<6[8:1],{4}2,{16}2,1,8,7,
6,5,{8}4/7h,4/7h,3/6h,3/6h,2b/5h,2b/5h,1b/4bh,
{16}1b/4bh,2x,3x,4x,{4}5x/7h[8:1],{16}5,7,4,6,3,5,2,4,
3,5,{8}1-3-5-2[4:1],6-1[8:1],1,{4}6,8xV64[8:1],
{16}8x/4x,3,2x,1,8,7,6/2,5/1x,4/8x,3/7x,6x/2x,5x,{24}4x,3x,2x,1-5[8:1],8x,7x,
{8}6x,1,{16},,6,5,{4}4/7h[4:1],{16}5<8>2[16:3],4,3,2,
{4}5/1h[4:1],{24}3,4,5,6,7,8,{8}1h[4:1],4h[8:1],,,8/3,
{16}5,6,5<8[8:1],6,{8}4h[8:1],5,2,{16}3,5,3,6,
2,7,{24}1b/8,2/7,3/6,5,4,3,2b,1/3,8/4,{4}7/5bx>2<7[8:5],6h[16:3],
{8},6x>8b[2:1],,,,8<5[4:1],,,{4}4,
{64}3,7h,,,,,,,3,7h,,,,,,,2,6h,,,,,,,2,6h,,,,,,,,,,,1,5h,,,,,,,,,,,1,
5h,,,,,,,1-3-5q5b[8:13],5-7-1q1[8:13],{1},{4},,,{16},,,{32},{8}4/8,
2,3/6,8,4/3,2/1,8/7,
{24}2,3,4,8,7,6,1,2,3,7,6,5,2,3,4,5,6,7,8,1/5,2/6,7/3,8/4,5,
6,7,8,1b/8b,2/7,3/6,{4}4/5,
E
