&title=PLAY BACK
&artist=BACK-ON
&first=0.71
&des=小鸟游残光
&lv_5=13+
&des_5=小鸟游残光
&inote_5=
(168){8},1xv2-4[4:3],,,,,,,,8xv7-5[4:3],
,,,,,,,3xv2V86[4:3],
,,,,,,,7x-5v4[8:5],
,,,,,,,1>4[8:1],
,1v6[8:1],,1-4[8:1],,1<6[8:1],
,1v2-4[2:1],,1,,6v7-1-3[2:1],,6,
,3-5-8[2:1],,,{2}4xh[2:1],
{8},4x-2[8:1],8x-6[8:1],4xv1-7[8:3],8x,4x,,,,8-5[8:1],
,8v3[8:1],,8<5[8:1],,8v2-4[8:3],
,8,,6-1-7-4[8:3],,6,,3xh[8:9],
,4xh[8:7],,,,,,,,Ch[8:7],
,,,,,,,2,
2,6,6,4,5,4,
{1}5s1[16:9]/4z8[16:9],
{8}2-5[8:1],4,2,7v5-3[8:3],1,7,,,{4}2v5[8:1],
2/3-7[8:1],{2}3/1,
{8},,,8<4[4:1],,4>8[4:1],,8V64[4:1],
,4V28[4:1],,8-4[4:1],,2-6[8:1],,2-8s4[8:3],
,5xh[8:3],,,,6-2[8:1]/3-7[8:1],,,,1x-3v5[2:1],
{4}8x-6v4[8:3],{8},,,,,,,7b-4[8:1],
,,{4}3b-8[8:1],
{8},6b-1-5-2-4[16:9],,,,,,,,,,2bv5[8:1],
,,{4}6bv8[8:1],
{8},1b-7-2-5[4:1],,,,8-4[8:1],,8,
{4}1-5[8:1],1/7,6<8[8:1]/4>2[8:1],6v1[8:1]/4v1[8:1],
{8}6/4>5[8:3],,,,,8v3[8:1],{4}8,
2-6[8:1],8/2,7<4[8:1],7/8-3[8:1],
{8}8/6z2[8:5],,,,,,,1V37[4:1],
,7-5-1[4:1],,1-3-7b[4:1],,7V51b[4:1],,1>8b[2:1],
,B7/E7/B6,,C,,B2/E3/B3,,,,8-5[8:1]/1-4[8:1],
,8/1,{16},,4,5,3,6,4,5,
3,6,{8}4w8[2:1],,,,,,,,8>3[8:1]/4<7[8:1],
,8b/4b,,8-5[8:1],2-5[8:1],8,
2,1b-7[8:1]*-3[8:1],,1b-5[8:1]*s5[8:1],,1b,,,,8>3[8:1]/4<7[8:1],
,8b/4b,,2-5[8:1],7-3[8:1],2,
7,1b-4[8:1]*-3[8:1],,1b-7[8:1]*-6[8:1],,1b,,,,8>3[8:1]/4<7[8:1],
,,,8>3[8:1]/4<7[8:1],,,,2-7[8:1]/6-3[8:1],
{4}3-6[8:1]/7-2[8:1],,8b/4b,
{8},7-4[8:1]/2-5[8:1],,,,6-1[8:1]/3-8[8:1],,,,8-4[8:1]/1-5[8:1],
,8<6[8:1]/1>3[8:1],,8z4[8:1]/1s5[8:1],,8b/1b,
,1-5[8:1],,7b/1b,,8V64[8:1],4-8[8:1],8,
,1b-3[8:1]*v4[8:1],,1bv6[8:1]*-7[8:1],,1b,,,,8-4[8:1],
,8b/2b,,2q6[8:1],6q2[8:1],2,
,8bV64[8:1]*V24[8:1],,8bv3[8:1]*v5[8:1],,8b,,,,4/8>3[8:1],
,8/4,,8/4<7[8:1],,8/4,
2-5[8:1],2-7[8:1],,,{4}3w7[8:1],3bV15-7[8:5],
{8},,,,,1V35[4:1],,5V71[4:1],
,1s5[4:1],,,,7-3[8:1],,1-5[8:1]*s5[8:1],
,1b,,,,,,6,
6/4,3,3/5,7<4[8:1],8,7,{4}2-4[8:1],
2/8-6[8:1],8/2v5[8:1],{8}2/1,,,7-4[8:1],
7,8-3[8:1],8,6-1[8:1],6,5-2[8:1],5,8w4[8:1],
,,,6h[4:1]/2h[4:1],,,,,,,,7-5[8:1],
,7/3-1[8:1],,3/8-4[8:1],
,8/2-5[8:1],,2/6-1[8:1],,6,{4}2>8[8:5],
{8}6/2,,,,,5w1[8:1],,,,7-5[8:1],
2-4[8:1],7,{4}2,8-5[8:1]*-4[8:1],
{8},,,2b-5[8:1],,,{4}7b-2[8:1],
{8},5b-7-3<4-8[8:5],,,,,,,,,1,
7bv4[8:1],,,{4}2bp6[8:1],
{8},8bp4[8:1]*q4[8:1],,,,7V52[8:1],,7,
{4}3-1-6[8:1],3,{2}7qq2[8:5]/5pp2[8:5],
{8},,,,,7-4[8:1],,7,
{4}3-8[8:1],3,{2}7V52[4:3]*V14[4:3],
{8},,,,,,,4V26[4:1],
,6-8-4[4:1],,4-2-6b[4:1],,6V84b[4:1],,4>5b[2:1],
,B6/E7/B7,,C,,B3/E3/B2,,,,8-5[8:1]/1-4[8:1],
,8/1,{16},,4,5,3,6,4,5,
3,6,{8}4w8[8:5],,,,,,,,7<4[8:1]/3>8[8:1],
,7b/3b,,2-5[8:1],1-6[8:1],2,
1,4b-6[8:1]*-2[8:1],,4bw8[8:1],,4b,,,,7<4[8:1]/3>8[8:1],
,7b/3b,,7-4[8:1],8-3[8:1],7,
8,5b<7[8:1]*>3[8:1],,5bw1[8:1],,5b,,,,8>3[8:1]/4<7[8:1],
,,,8>3[8:1]/4<7[8:1],,,,2-5[8:1]/6-1[8:1],
{4}1-6[8:1]/5-2[8:1],,7b/3b,
{8},7<4[8:1]/8>3[8:1],,,,1<6[8:1]/2>5[8:1],,,,7-5[8:1]/3-1[8:1],
,7-3[8:1]/3-7[8:1],,7-5-3[8:1]/3-1-7[8:1],,7b/3b,
,2-6[8:1],,8b/2b,,7-5[8:1],3-1[8:1],7-3[8:1],
3,7b<4[8:1]*>2[8:1],,7bw3[8:1],,7b,,,3-8[8:1],
7v4[8:1],3,7,1v4[8:1],8<5[8:1],1,8v3[8:1],
,8/1bq5[8:1]*>5[8:1],,1b<5[8:1]*p5[8:1],,1b,,,,8>3[8:1]/4<7[8:1],
,,,8>3[8:1]/4<7[8:1],,,,1v4[8:1]/5v8[8:1],
7/3,5/1,,7-5v4[2:1]/3-1v8[2:1],,,,,,,,8-6-4[4:1],
,4V28[4:1],
,8-6v4[8:3],,,,7-3[8:1],,7/5-8[8:1]*v2[8:1],
,5b,,,,7-4[8:1],,2-6[8:1],
,5-1[8:1],,8-3[8:1],,8<2[4:3],,8,
,1h[2:1],,,,,,1v4[8:1],
,1-6[8:1],,1>4[8:1],,1-7[8:1],,1-5>2-6[4:3],
,1/7-3[2:1],,7,,,,,,5v7[8:1]/4v2[8:1],
,,,8-6[8:1]/1-3[8:1],,,,5-2>8[2:1]/4-7<1[2:1],
,,,,,,,8-6v4[2:1]/1-3v5[2:1],
,,,,,,,6-3[8:1]/2-7[8:1],
,2b/6b,{16},,1,5,2,6,3,7,
4,8,4,7,4,6,4,5,{4}6/3,{8}5-8[8:1]/4-1[8:1],6/3,
{4}5/4,{16}8/1,7/2,{8}6/3,{4}6x/3x,{8}8/7-4[8:1],6/1,
7/8,{16}1,2,3,4,5/8,7,6,5,4,3,2,1,8,7,
{8}6/2,6/2,7/3,7/3,8/4,8/4,8/4,8/4,
{1}6q8[8:13]/2q4[8:13],
{8},,,,,,,,,7p5[2:3]/3p1[2:3],
,,,,,,,,,,,,,,,7<4[8:1],
{24},,,7b/8b,1,2,{8}3,8-4[8:1],2-6[8:1],8,
2,1b-5[8:1],,1bw5[8:1],,1b,,,,1/2>5[8:1],
{24},,,1b/2b,8,7,{8}6,3>1[8:1],5<7[8:1],3,
5,4b-8[8:1],,4b-7[8:1]*-1[8:1],,4b,,,,8<5[8:1]/4>1[8:1],
,,,5<8[8:1]/1>4[8:1],,,,8-4[8:1]/4-8[8:1],
{4}4V25[4:1]/8V61[4:1],{8},,,,,2/8-6v4[8:1],
,,,7/1-3v5[8:1],,,,8<5[8:1]/4>1[8:1],
,8q4[8:1]/4q8[8:1],,8<5[8:1]/4>1[8:1],,8b/4b,
,2-6[8:1],{32},,,,5b/2b,B2f,Cf,B6f,,,,,{8}7-4[8:1],8v3[8:1],7,
8,5bpp7[8:1]*qq3[8:1],,5bq1[8:1]*p1[8:1],,5b,,,,7v4[8:1],
,7b/5b,,5v3[8:1],6-8-2[8:1],5,
6,5b<8[8:1]*-2[8:1],,5b>2[8:1]*-8[8:1],,5b,{32},,,,,,,,,,,,1bw5[8:1],
8/2,{16}7/3,,,{8}1b,{32},,,,8bw4[8:1],1/7,{16}6/2,,,{8}8b,
,7-5-2[8:1]/3-1-6[8:1],6/2,7/3,{32},,,,,,,,7x/3x,8x/4x,5x/1x,6x/2x,{8}7bx-2-8[4:1]/3bx-6-4[4:1],
,,,,,1-6[4:1],,6-3[4:1],
,3-7[4:1],,7-2[4:1],,2-5[4:1],,7-3[8:1],
,7b,,1q5[8:1]/5<8[8:1],,5>2[8:1]/1p5[8:1],,1q5[8:1]/5<8[8:1],
,1p5[8:1]/5>2[8:1],,1/5,,7-4[8:1]/8-3[8:1],,7/8,
,6/1-5[8:1],,1-3-7[8:1],8,1,{4}6>8[1:1],
{8},,,,,,,,,,,7-5[8:1]*-4[8:1],
,7-2[8:1]*-1[8:1],,7<4[8:1]*v4[8:1],
,7v2[8:1]*>2[8:1],,7,,5-8[8:1]/4-1[8:1],,5/4,
{16},,2b,7b,3b,6b,4b,5b,2b,1b,4b,5b,8b,7b,4b,5b,
1b,7b-1-5-3b[16:13],
E
