&title=Terrasphere
&artist=Plum
&first=-0.01
&lv_5=13.8
&des_5=snd
&inote_5=
(160){4},{8},,,,,,,,,,2,
3,4,5,
6,7/2q4<2[4:5],,,,,,,,8,
,,,,,7,
6,5/4>5[1:1],,,,,,,,4,
,,,3,2,1,
8,7/2pp1<2[1:1],,,,,,,,7h[8:1],
,,,6,5,4,
3,2/8p6>8[1:1],,,,,,,,4,
,,,7/1>4[4:1],,,,8b,
,4/6,5,6<8[8:1],2,6,
3,4>2[8:1],7,4,6,8<6[8:1],1,8,
3,1>3[8:1],4,1,7,8<6[8:1],3,8,
3,1-3[8:1],7,1,5,7-5[8:1],1,7,
4,2-4[8:1],6,2,7,8<6[8:1],1,2,
3,4>2[8:1],5,6,7,8-6[8:1],1,2,
3,4-2[8:1],5,6,7,8-5[8:1],1,2,
3,4-1[8:1],5,6,7,8,{16}1xz5[8:1],2x,8x,3x,
{8}1,3b,,,B1,B7,B2,B6,
B3,C/8x-5[8:1],,2x-5[8:1],,7x-2[8:1],,3x-7[8:1],
,2x,,,4,4,5,4,
4,3,4,4,6,7-3[8:1],,3,
,1-6[8:1],,1>4[8:1],,1,8x,7x,
{16}5,6,{8}5,,4,4,5,4,3,
4,7<4[8:1],,1,1,2,8,2,
7,B2/B3/B1/Ch[8:7],{16},,,,,,,,,,,,,,1x,
2x,3x,4x,{8}5x,6h[8:1],5,6h[8:1],4,
6h[8:1],2p6[4:1],,6p2[4:1],,2<6[4:1],,6>2[4:1],
,C,,,8h[8:1],1,7h[8:1],2,
6h[8:1],3,5h[8:1],4,5h[8:1],4-1[8:1],,4,
,6/5,,4/5,,2/5,{16}3,4,{8}3,
2,{16}6,5,{8}6,7,4-2[8:1],5-7[8:1],4,5,
1,{16}8,7,8,7,{8}1,2b/5,3,3/5x,7b/4,
5,{48}7/4,,,,,3,,,,{16}3,{24}4/2,,6,,6,,{8}5/7x,{16}3,4,5x,4x,
5x,6x,{8}7pp6[4:1],3,7,{4}2,4/5,
{16}4x,3x,{8}2-7[8:1],7,2,{4}6,4/5,
{8}7>1[8:1],1>3[8:1],3<5[8:1],5<8[16:3],{16},,,,,,,,6,
5,{8}4-2[8:1],5-1[8:1],4,{4}5,{8}4,6,
4,7pp4[2:1],2,7,{4}2-5[8:1],2,
C,{16}1,2,{8}3,5/4,6/3,7/2,8/1,
1/8,7>6[8:3],{4}2-4-6[4:1],{16},,,,,,,,8,
7,{8}6-4[8:1],3-7[8:1],6,{4}3,{16}8,4,1,5,
2,6,{8}3-8[8:1],7pp5[8:3],3,{4}7,4,
{16}4,3,{8}2qq5[2:1],5,6,{4}7-5[8:1],7,
{8}3,2-5[8:1],6-1[8:1],2,{4}6,{8}2,2,
{16}8,7,{8}5-2[8:1],1-6[8:1],5,{4}1,{8}8x/2-6[8:1],8,
{4}2/8,{8}1x/7-3[8:1],1x,{4}7/1,{8}2-6[8:1],1/8,
2/8-4[8:1],1,8/2xq7[4:1],3,{2}2/7x>8pp3[2:1],
{8}7,7-4[8:1],,7,,2-5[8:1],,2/1,
,2,3h[8:1],4h[8:1],5h[8:1],6h[8:1],7h[8:1],8h[8:1],
1bh[8:1],C,{24},,,B1,B2,B3,{8}B4,E8,B6,B3,
E2,E7,E3,E6,E4,E2,E8,B1,
B8,B4/B5,,B2/B7,C,B3/B4,B8/B7,E6,
E2,B5,B6,B4,B7,{24}E2,B1/B2,B8/B3,{8}B7/B4,E6,
C,6h[4:1],,4h[4:1],,5h[8:1],3h[8:1],6h[8:1],
2h[8:1],7h[8:1],1h[8:1],8h[8:1],2h[8:1],1h[8:1],{16},,3h,2,
{8}3h,4h[8:1],3h[8:1],5h[8:1],3h[8:1],6h[8:1],3h[8:1],7h[8:1],
3h[8:1],8h[8:1],{16},,2qq4[4:1],1,{8}2h,2,,5,
6,{16}7-4[8:1],8,1,2,{8}3/7,,6/5-2[8:1],4,5/8-4[8:1],
7,8/2-5[8:1],1,2/7-3[8:1],6,7/1-5[8:1],8-4[8:1],1,
8,2-5[8:1],{16},,2,1,8,7,6/4,3,2,1,4/8,3,
2,1,{24}8-4[8:1],4,3,2,1,8,6,,,{8}6,{16}6>4[8:1],7,8,1,{8}2/6,
{16},,3x,2x,1,8,7-3[8:1],4,5,6,{8}7/2-6<8[48:11],1,2/5,
4,{16}1-5[8:1],2x,3,4x,{8}5x/1,2-6[12:1],2,8-5[12:1],8,
1-4[16:1],{16}1,7,6,5,1,2,3,4,8,4,7,3,{8}6pp1[8:3],
2/8,4/6,,,{4}2h[8:1],{16}8v5[8:1],1h,8h,1h,
{4}8h,{8}4b,5b,3b,6b,2b,7b,
1b,{16}8x,7x,6x,5,4,3,2,6x,5x,4x,3,2,5,1,
5,1,5,1,6,2,7,3,8,4,1,5,1,5,1,5,
4,3,2/1,8,7,6,5,4,3x,1,2,3,4,5,1,8,
7,6,{8}5/4-8[8:1],{4}7v2-5[4:1],{16},,,,,,1,2,
3,4,1,8,7,6,5,4,2,4,2,4,{8}1/5,2/6-1[8:1],
3-6[8:1],6-8-2[4:1],,,,,7-4[8:1],1,
7,1-5[8:1],8-4[8:1],1,{4}8,{16}2,3,4-1[8:1],5,
8,7,{8}6-2[8:1],5,1-4[8:1],8,7-4[8:1],6,3-8[8:1],
2,{16}6/3,5,4,3,2,1,4,5,6,7,8,1,5,4,
3,2,1,8,5x,4x,3x,2x,1x,8x,3,4,5,6,3,7,
3,7,2,6,2,6,2,6,3,7,4,8,5,1,{8}5bx>1[4:1],
,1b-7[8:1],7b-5[8:1],5b-3[8:1],,,,5/1,
6/2,{16}3/7,4,5,6,7,8,1,5,2,6,{8}2,2>4[8:1],
4<6[8:1],6<8[8:1],{4}8>2[8:1],{8},,7,7<5[8:1],
5>3[8:1],3>1[8:1],{4}1<7[8:1],{16},,,,6,5,4-8[8:1],1,
2,3,{8}4bx,6-2[8:1],7,8-5[8:1],1,2-7[8:1],3,
4p4-6-8-2-4[2:3]*q5<4b[2:3],4b,,,,,,,,,,,,,,B6/B5,
B2/B1,C/B8,,,C,,,7<5>3[4:1],
5,3>7[4:1],,7V53[4:1],,3V17[4:1],,7<7-4-1-6-3-8-5-2-7b[0.375##5.25],
,,,,,,,,,,,,,E4,
E3,E2,
E1,Ch[1:1],{16},,,,,,,,,,,,,,,,,,,,,,{8}Cf,
,,,5b<6-2>3-7>8-4<5-1>2-6<7-3<4-8>1-5[1:8],
,,,,,,,,,,,,,E2,
E3,E4,,,,,,,,,,,,E6,
B5,B4,
E4,C,,,,,,,,,,,,E2,
B2,B3,
E4,C,,,,,,,,1h[1:1],
E
