&title=快乐的扑满
&artist=邵丽棠
&first=0
&des=尘落南丘
&lv_5=13
&inote_5=(142)
{1},,
{16}5,,6,,4,7,4,,5,,3,4,3,,2,,
{8}5,6^3[8:1],6,2v7[8:1],2,8-4[8:1],8,,
{8}2v7[8:1],,2,6^3[8:1],6,1w5[8:1],1,,
{16},,7h[16:3],,,8,,,16,,2h[16:3],,,1,,,3/8,,
{8}2-6[8:1],,,7,7-3[8:1],,27,
{8},3^6[8:1],3,7p2[8:1],7,1v4[8:1],1-5[8:1],,,
{8}2x,7x^4[8:1]/3x^8[8:1],,3b/7b,,1,6,37,
{16}21,,,83,,,65,,87,,,61,,,
{8}4/3-8[8:1],3h[4:1],,,5/6-1[8:1],,6h[8:1],,,
{24}5h[4:1]/1x,,,E2,B2,B3,E4,,,{8}7x/4x,,B3/B4/B8/B7,,,
{8}Ch[8:1]/B8/B1/B2/B3,,8xh[8:1]/3xh[8:1],,C/B1/B8/B7/B6,4x/3x,,
{8}8-4[8:1]/7-3[8:1],,78,,,47,12,,
{8}1s5[4:1]/5,,,,,{16}56,,,34,,,18,,72,,3,4,3,,6,5,6,,4,5,4,,
{8}7,1^6[8:1]/2,,4,4-1[8:1]*-7[8:1],,4,,
{8},8,6^4[8:1]/2^4[8:1],,2b/6b,,
{8}53,8,2,8^3[8:1]/7,,5,5-8[8:1]*-2[8:1],,5,,
{8}28,5x-1[8:1],,56,8,2h[4:1]/7,,3h[4:1],,
{8}4w8[8:1],,4V25[4:1],
{8},7,,6,5,4,36,5v4[4:1]/4p5[4:1],,,,,,
{8}7h[4:1]/2,,6h[4:1],,5V37[4:1],,2,2,,
{8}7q3[8:1]/1p5[8:1],,1pp2^4[4:1]/7qq6^4[4:1],,,,,
{8}5bx/3bxV52[4:1],,83,8-5^4[4:1]*^1-4[4:1],,,,,
{8}4bx/6bxV47[4:1],,36,3v5[4:1]*>7[4:1],,,,,
{16}6^3[8:1],,,7,,,8,,1^6[8:1],,,2,,,3,,
{16}4b-1[8:1]/5b-8[8:1],,,,,,,,2b/7b,,,6b/3b,,,
{16}5b/7b,,2b/4b,,,3,5,,45,,57,,,6,4,,
{8}54,3-8^1-6[2:1]/6,,,,,,,,
{8}1V37[4:1]/7h[4:1],,,8,,6,5,74,8V62[4:1]/2h[4:1],,,1,,3,4,25,
{8}1-5[8:1],2,8-4[8:1],7,
{16}3,,,2,,,38,,18,,,16,,,5v3[8:1]/4v6[8:1],,5/4,,,,,,
{8}8/1>7[4:1],7/2h[4:1],,,1q8[4:1],,18,,7,
{8}16,2^5[8:1]/5^8[8:1],,2b/5b,,38,,
{16}1/8^3[8:1],,7,,,6,,,5/4^7[8:1],,3,,,2,,,18,,
{8}8bxV64b[4:1]/4bxV28b[4:1],,,,,1,2,3,
{8}7^2[8:1],7,3p6[8:1],3,5v8[8:1],5-1[8:1],,,
{8}6x,3x^8[8:1]/7x^4[8:1],,7b/3b,,5,2,37,
{16}65,,,47,,,21,,43,,,25,,,
{8}8/7-4[8:1],7h[4:1],,,1/2-5[8:1],,2h[8:1],,,
{8}7v1[8:1]/8v6[8:1],78,,,61,78,,
{8}2^5[8:1]/1^6[8:1],,21,,,52,87,,
{8}8z4[4:1]/4,,8,,,{16}43,,,65,,,81,,27,,6,5,6,,3,4,3,,8,1,8,,
{8}2,8-4[8:1]/7,,5,5^8[8:1]*^2[8:1],,5,,
{8},1,8-5[8:1]/2-5[8:1],,2b/8b,,
{8}46,1,7,1-5[8:1]/2,,4,4^1[8:1]*^7[8:1],,4,,
{8}71,4-8[8:1],,43,1,7h[4:1]/2,,6h[4:1],,
{8}5w1[8:1],,5V74[4:1],
{8},2,,3,4,5,63,4v5[4:1]/5q4[4:1],,45,,,,
{8}2h[4:1]/7,,3h[4:1],,4V62[4:1],,7,7,,
{8}2p6[8:1]/8q4[8:1],,8qq7^5[4:1]/2pp3^5[4:1],,,,,
{8}6bx/2bx-5-1[4:1],,82,8-5^4[4:1]*^1-4[4:1],,,,,
{8}3bx/7bx-4-8[4:1],,37,3v5[4:1]*>7[4:1],,,,,
{16}6^1[8:1],,,5,,,4,,3^6[8:1],,,2,,,1,
,
{16}2b-5[8:1]/7b-4[8:1],,,,,,,,6b/3b,,,2b/7b,,,
{16}1b/3b,,6b/8b,,,6,4,,17,,42,,,3,5,,
{16}28,,7,6,5,3,2,1,7,6,5,4,3,2,1,,,,
{8}8qq2[4:1]/2h[4:1],,,1,,3,4,25,1pp7[4:1]/7h[4:1],,,8,,6,5,74,
{8}8-4[8:1]/1,7,1-5[8:1]/8,2,
{16}16,,,7,,,61,,81,,,83,,,4qq2[8:1]/5pp7[8:1],,4/5,,,,,,
{8}1/8V64-2[4:1],2/7h[4:1],,,8p1[4:1],,81,,2,
{8}38,7^4[8:1]/4^1[8:1],,7b/4b,,61,,
{16}8/1-6[8:1],,2,,,3,,,4/5-2[8:1],,6,,,7,,,81,,
{8}1bxV35b[4:1]/5bxV71b[4:1],,,,,8,7,6,
{8}1h[4:1]/5h[4:1],,,
{16}2,4,3,6,1,7,2h[4:1],,
{8},3h[8:1],4,5h[8:1],7,8h[8:1],1,2h[8:1],4,
{16}7,6,5,4,1,2,3,4,8,7,6,5,2,3,4,5,
{16}8,3,7,2,{32}6x,5x,4x,3x,2x,1x,8x,7x,6x,5x,4x,3x,2x,1x,8x,7x,
{4}2bx/6bx,
{16}1V37[4:1]/7,,,6,1,,8,,,8,5,,64,,53,,
{16}8V62[4:1]/2,,,3,8,,1,,,1,4,,35,,46,,
{8}1-5[8:1],8,7-3[8:1],6,
{16}5,,,4,,,38,,18,,,16,,,2,3,4,1,2,3,4,5,
{16}6/1>7[4:1],,8/2h[4:1],,,,,,1p8[4:1],,,8,1,,,,7,,
{16}16,,2^5[8:1]/6^1[8:1],,,,2b/6b,,,,83,,,,
{16}1/8^3[8:1],,7,,,6,6,,5/4^7[8:1],,3,,,2,2,,18,,
{8}8bh[4:1]/4bh[4:1],,,
{16}27,6,5,4,3,2,1,8,7/3,,
{4}1bx-3[8:1]/5bx-7[8:1],E6/E2,
{4}8b^5[8:1]/4b^1[8:1],D4/D8,1bq5[8:1]/5bq1[8:1],C,
{8}7,3,5,1,{12}6h,5h,4h,6h,5h,4h,
{1}3bp6[2:1]/7bp2[2:1],
