&title=girls.exe
&artist=Rintaro Soma
&first=-0.014
&des=Adachi Biggy
&des_5=Adachi Biggy
&lv_5=14+
&inote_5=(188){4},{12},,,,,,,,,,,,C,
{24},,A8,D8,A7,D7,A6,{1128}D6,{64},,{4512},,,,,,,,,,,{1128}A5,,,,,,,,{3}E3/B2/B3,
{1}C/1-7-2-6-3-5[4:11],
B4/A4,
A8/B8,
{4},,,{16},,,{32}B3,B2,
{1}E2/8-2-7-3-6-4[4:11],
B5/A5,
A1/B1,
{16},,,,,,,,E3,E4,E5,E6,E7,E8,E1,E2,
{4}5x,5h[4:3],{2}B6/B5,
{4}4,3h[4:3],{2}B3/E4,
{4}6,6h[4:3],{2}B6/E6,
{4}5,4-1[4:1],{2}B3/B4,
{16}1,5,1,5,2,6,2,6,3,7,3,7,4,8,4,8,
3,7,3,7,2,6,2,6,1,5,1,5,8,4,8,4,
{24}1,2x,3x,5,6x,7x,1,2x,3x,5,6x,7x,2,3x,4x,6,7x,8x,2,3x,4x,6,7x,8x,
{16}E3,E4,A4,E1,E2,A2,E7,E8,A8,E5,E6,A6,E3,E4,A4,C,
,,,,,,{8}5xs1[2:1],{16},,,,,,,,,,,,,,1,
1,1,1,1,1,1,1,1,1,
{4}2bx/8bx-4[8:1],{8}8/7,6,{16}3,5,3,5,{8}2-5[8:1],2,
1,8,7-4[8:1],7,4,3,{4}2-6-2[4:1],
2/8-4[8:1],8,{16}2,3,4,5,8,7,6,5,
{8}1v4[8:1],1v6[8:1],{16},,,,3,7,{8}3h[8:1],,,{4}1b/7b,
{16}2,1,2,1,{8}2h[8:1],{16}8,3h[8:1],,7,{8}4h[8:1],
6,2/6,{16}3,4,3,4,{8}3h[8:1],{16}5,2h[8:1],,6,{8}1h[8:1],
{16}7,2,6,2,{8}5,5,{16}1,4,3,8,5,6,1h[8:9],5,
,A3,,,B3,,,C,,,{8}B7,{16},A7,{48},,,,,,,D2,
{1176}A2,{64},{9408},,,,,,,,,,,,,,,,,,,,,,,,,,,,,{1176}D3,{64},{9408},,,,,,,,,,,,,,,,,,,,,,,,,,,,,,,,,,,,,,,,,,,,,,,,,,,,,{12}A3,{24},,{8}8-4[8:1],4,8x,2,{16}5,3,6,4,
{8}7-1[8:1],{16}4,4,{8}7<4[8:1],{16}2,2,{8}7xv4[8:1],3x-8[8:1],7x,3x,
{16}5,6,7,8,{8}1/2-6[8:1],3,2/1-5[8:1],8,1/2-6[8:1],3,
1/2,{16}7,8,7,8,7,8,7,8,7,8,{4}7-5[8:1],
{8}4/7bx,3,{4}2<7[8:1],{12}2>5[8:1],6,6,2-6[8:1],6,6,
{4}2bx,{8}8w4[8:1],7/1,{4}8,6x/2x,
{8}4x/8x,7,{16}2,5,{8}2,{16}8/4,7,6,5,4/8,3,2,1,
{4}8/4-8[8:1],4b,{16}7x/1x,1x/7x,,,5x/3x,3x/5x,,,{8}4,
4,5/3,{16}6,5,6,5,{8}7,{16}2,4,3,4,
{8}3,7,7/1,2,6/3<6[8:1],7,{4}3/8w4[8:1],
8b,{8}6/2,{16}7,5,7,5,{8}6,{16}3,4,3,4,
{8}2,7,7/3,2,5/1-5[8:1],6,{4}1/7-4[8:1]*-3[8:1],
7b,{8}2,{16}7,1,6,1,{8}5,{16}2,8,3,8,
{4}4<8[4:1],8>4[4:1],4,8,
{8}6/5,5/4,{4}4/3,{16}1/5,2,3,4,5/1,6,7,8,
{4}1/5-1[8:1],5b,{32}2,3,4,5,8,7,6,5,{4}1b,
{8}5,5,4/6,{16}3,4,3,4,{8}2,{16}7,5,6,5,
{8}6,2,2/8,7,3/6>3[8:1],2,{4}6/1w5[8:1],
1b,{8}3/7,{16}2,4,2,4,{8}3,{16}6,5,6,5,
{8}7,2,2/6,7,4/8-4[8:1],3,{4}8/2-6[8:1]*-5[8:1],
2b,{8}7,7,3,4,2,2,
6,5,7,7,E4/B4,E6/B6,E2/B2,E8/B8,
{16}E4,E5,E6,E7,E8,E1,E2,E3,E4,E5,E6,E7,E8,E1,{8}E2,
{16},,,,8x,7x/1x,6x/2x,5x/3x,{2}4x-8b[8:1],
{16}1b,7,1,7,2,6,2,6,3,4,3,4,2,5,2,5,
4b,6,4,6,3,7,3,7,2,1,2,1,3,8,3,8,
4b,7,5,6,4,7,5,6,4,7,5,6,4,7,5,6,
3b,4,2,5,1,6,8,7,2b,1,3,8,4,7,5,6,
4b,5,4,5,3,6,3,6,2,7,2,7,1,8,1,8,
2b,1,2,1,3,8,3,8,4,7,4,7,5,6,5,6,
2b,5,3,4,2,5,3,4,2,5,3,4,2,5,3,4,
{4}2x-6[8:1],2x,{8}8x/4x,4xh[4:1]/8xh[4:1],{16},,,,8b,
4,8,4,7,3,7,3,6,2,6,2,5,1,5,1,
6b,2,6,2,7,3,7,3,8,7,6,5,4,3,2,1,
4b,8,3,7,2,6,1,5,8,4,1,5,2,6,3,7,
{4}4-8[8:1],4b,{32}7,6,5,4,1,2,3,4,{4}8b,
{32}1/6b,5,{16}4,{32},,1/6b,5,{8}4,{32}1/6b,5,{16}4,{8}2,2,{32}8/3b,4,{16}5,{32},,8/3b,4,
{8}5,{32}8/3b,4,{16}5,{8}7,7,{16}1,8,1,8,1,8,1,8,
{32}2b,3,4,5,,,8b,7,6,5,,,1b,2,3,4,,,7b,6,5,4,,,{8}2,2,
{4}4x-8[8:1]/5x-1[8:1],4b/5b,{32}2x,3,4,5,6,7,8,1,2,3,4,5,6,7,8,1,
(140){1}2>2>4<6<8>2>3<4<5<6<7>8>1>2[3.4286##8.5106],
,(211.5)Ch[4:1],
,Ch[4:1],
,Ch[4:1],
,Ch[4:1],
{4},,,,8h[2:3]/B6,
B5,B4,B3,
{16},,,,,,,,,,,,,,,,E3,
B3,B4,E5,E1,B1,B2,E3,E7,B7,B8,E1,E5,B5,B6,E7,
D3,A3,D4,A4,D1,A1,D2,A2,D7,A7,D8,A8,D5,A5,D6,A6,
{1}1h[2:3],
,6h[1:3],
,3h[1:1],
{8},,,4/6,{4}5w1[8:1],5b,
{8}7-5[8:1],8,7/1,{16}3,3,{8}4,2,5,5,
{4}6/4V25[4:1],{8}4,{16}6,7,{4}8-4[8:1],4/8,
3/5V74[4:1],{8}5,{16}3,2,{4}1-5[8:1],1/5,
6/4V25-1[2:1],{8}4,{16}6,7,{4}8-4[8:1],8,
{8}2-4[8:1],1,2/8,{16}6,6,{8}5,7,4,4,
{4}3/5V74[4:1],{8}5,{16}3,2,{4}1V35[16:3],{16}5,6,7,8,
{4}1b-5[8:1],1bw5[8:1],{8}1b,,,Cf/1>1[8:3],
,,,,{4}5x-1[8:1],5,
{16}2,3,4,5,8,7,6,5,1,2,3,4,7,6,5,4,
{4}2-5[8:1],{8}2/1,8-4[8:1],,8/7,{4}6,
3/5,{8}1/2,{16}7,8,,6,{8}5,{4}3qq8[4:3]/4pp7[4:3],
,,,,{1}1xh[4:3]/8xh[4:3],
{16}1,8,1,8,1,8,1,8,1,8,1,8,{4}2b/7b,
{16}1b,5,1,5,2,6,2,6,2,3,4,5,8,7,6,5,
{4}4b/2b-5[8:1],{8}2/5,7bV51[4:1],,7/4,{4}2h[4:1],
{16}8,7,6,5,4,3,1,8,7,6,5,4,{4}8b-4[8:1],
8/2-5-3[4:1],{8}2/5,7-4[8:1],,7/8,{4}1,
{8}2x<7[16:3],8x<5[16:3],6x>3[16:3],4x>1[16:3],{16},,,,7,6,5,4,
1x,8,7,6,5,4,3,2,{8}1b/5b-1[8:1],5,{16},,,,2,
8,2,8,2,8,2,8,3,7,3,7,3,7,3,7,
4,6,4,6,4,6,4,6,5,5,5,5,5,5,5,5,
4,3,2,1,6,5,4,3,8,7,6,5,2,1,8,7,
2,6,2,6,2,6,2,6,{32}2,3,4,5,6,7,8,1,{4}6b/2b,
{16}1,2,3,4,5,6,8,1,2,3,4,5,{4}1-5[8:1],
1/7-4-6[4:1],{8}7/4,2-5[8:1],,2/1,{4}8,
1b<6[8:1]/5b>2[8:1],5b/1bw5[8:1],{8}1b,,,2/8,
{16}3,4,{8}3,7/1,{16}6,5,{8}6,7/3,{16}3/7,2/6,1/5,8/4,
7x,3x,7x,3x,7x,3x,7x,3x,7x,3x,7x,3x,7x,3x,7bxh[8:3],3bxh[16:9],
{4},,{24}8,1,2,3,4,5,7,8,1,2,3,4,
{4}5b/1b-5[8:1],1,{8}6/4,{16}7,5,7,5,{8}7,
{16}4/3h[4:1],5,6,7,{8}8,{16}1/8h[4:1],2,3,4,{8}5,{4}5/7-3-7[4:1],
7b/1-5[8:1],1b,{16}8,7,6,5,2,3,4,5,
{8}8v5b[8:1],8v3b[8:1],,,1v6b[8:1],1v4b[8:1],,,{4}5x,
3b/7b,{8}3h[8:1],{16}5,4h[8:1],,6,{8}5,
{16}1xh[8:1]/2xh[8:1],,,3xh[8:1]/8xh[8:1],,,{8}7x/4x,{16}6,5,6,5,{4}4x/7x,
{16}6,5,7,7,4,5,3,4,2,2,5,4,6,5,7,7,
1,8,1,8,2,7,2,7,{32}1<1[4:1],2,3,4,5,6,7,8,E1,E8,E7,E6,E5,E4,E3,E2,
,,,,,,,,,,,,,,,,{2}Ch[2:5]/1b-5>5[4:9]*-5>5[4:9],
{1},,{4},,,{16},,{32}B1,
B2,B3,B4,
B8,B7,B6,B5,A1,A2,A3,A4,A8,A7,A6,A5,{8}Cf,
E
