&title=月が綺麗ねと言われたい!
&artist=柿崎ユウタ
&first=0.03
&des_5=albertoBradish
&lv_5=13+
&des_6=albertoBradish
&lv_6=13+
&des=albertoBradish
&clock_count=4
&inote_5=(160){4},{8},,,,,,,,,,4/5,
4/5,6/3,2/7,
{4}8b/1b,{8}7-4[8:1],8,{4}7,{8}2-5[8:1],1,
{4}2<7[8:1],2/6>3[8:1],6/1-5[8:1],1,
7/1,{8}3-8[8:1],4,{4}3,{8}6-1[8:1],5,
6,5,4,3,{2}2v5[8:1]*-7[8:1],
{8}7/1,8,2-5[8:1],1,{4}2,{8}7-4[8:1],8,
{4}7>2[8:1],7/3<6[8:1],3/8-4[8:1],8,
2/8,{8}6-1[8:1],5,{4}6,{8}3-8[8:1],4,
3,4,5,6,{16}7-4[8:1],5,{8}6,7/8,1,
{4}2h[4:1],{8}4,4,{4}3h[4:1],{8}4,4,
2,5,3,6,{2}5>2[16:3],
{8}7-4[8:1],3,{4}3,{8}6-4[8:1],3,3,2,
1-5[8:1],4,{4}1V36[16:5]*q6[16:5],,,7h[4:1],
{8}5,5,{4}6h[4:1],{8}5,5,
7,4,6,3,{2}4V68[16:3],
{8}3-8[8:1],3,,7,6h[8:3],,,8-4[8:1],
,8/7,5-7[8:1],6,5,8,{4}8-4[8:1],
{8}8b/2-5[8:1],1,2/6-1[8:1],7,6/2,2,3,4,
{4}5<1[4:1],{8}1<5[4:1],2,3v8[8:1],,,4,
4V68[4:1],,,2,2V46[4:1],,,8,
8V24[4:1],,,6,{2}6-2[8:1],
{8}1/7-4[8:1],8,7/3-8[8:1],2,3/7,7,6,5,
{4}4>8[4:1],{8}8>4[4:1],7,6-2[8:1],,,5,
5V31[4:1],,,7,7V53[4:1],,,1,
1V75[4:1],,,3,3-8[8:1],7,{4}7-4[8:1],
7b/1-6[8:1],1/3-8[8:1],{8}3/4,5,6,7,
8-4[8:1],7-3[8:1],8,7,,1,2,3,
5/4-8[8:1],3,5-7[8:1],6,{4}2>5[8:1],2/8qq5[8:3],
{8}4,3,2,2,{2}1<6[8:1]/5-8[8:1],
{4}2b/8-3[8:1],8/6-1[8:1],{8}6/5,4,3,2,
1-5[8:1],2-6[8:1],1,2,,8,7,6,
5h[8:3],4,3,2,4h[8:3],5,6,7,
5/4,6,7,8,{4}1-7[8:1]/5-3[8:1],1-5[8:1],
{8}1b-7[8:1],4,1-3[8:1],6,1/6-4[8:1],7,1-3[8:1],8,
7<4[8:1],8,1>4[8:1],8,7,7,6,5,
2-5[8:1],5-3[8:1],2,6,7-4[8:1],4-6[8:1],7,3,
2-6[8:1],8,2<7[8:1],5,2/4-8[8:1],5,{4}4,
{8}6b-1[8:1],1-7[8:1],6,2,3-8[8:1],8-2[8:1],3,7,
6-2[8:1],4,6>3[8:1],1,6/8-3[8:1],1,8/7-4[8:1],6,
7,3,2,1,4/8,5,6,7,
8-4[8:1],4V61[8:1],3,2,{2}2w6[8:1],
{8},3,{4}3h[4:1],4,{8}5,5,
{4}4h[4:1],{8}6,6,{4}5h[4:1],6,
{8}5<7[8:1],4,{4}3,{8}5<7[8:1],4,3,3,
5<7[8:1],4,3,2,8-5[8:1],1,{4}1,
{8}3,4,5,5,6,5,4,4,
5,3,4,4,{4}2-4[8:1],{8}4,5,
6,5,4-6[8:1],3,4,,,6h[4:1],
,5h[4:1],,4,{2}4w8[8:1],
{8}2b/6b,3,4/5,6,{4}7/8-5[8:1],{8}8/2,3,
4>1[8:1],5,6<1[8:1],5,2/6,3,{4}7/4<8[4:1],
8>4[4:1],4<8[4:1],8>4[4:1],{8}4,5,
{4}6-1[8:1],6/5-1[8:1],5/4-1[8:1],4/2,
{8}7b/3b,6,5/4,3,1/2-6[8:1],3,2/1-5[8:1],8,
1,4,3>8[8:1],4,7/3,6,{4}5>1[4:1],
1<5[4:1],5>1[4:1],1<5[4:1],{8}5,4,
{16}3,3,{8}4,{16}6,6,{8}5,{4}4/7V51[16:3],{8}4,3,
2b-4[8:1],8,2<7[8:1],7,2-6[8:1],6-2[8:1],2,5,
7-4[8:1],8-2[8:1],7,8,6h[4:1],8,2,4,
6V82[4:1],5,4,3,3V17[4:1],4,5,6,
6V82[4:1],5,4,3,3-6[8:1],4,{4}3/6,
{8}7b-5[8:1],1,7>2[8:1],2,7-3[8:1],3-7[8:1],7,4,
2-5[8:1],1-7[8:1],2,1,3h[4:1],1,7,5,
3V17[4:1],4,5,6,6V82[4:1],5,4,3,
3V17[4:1],4,5,6,6-3[8:1],5,{4}3/6pp1[1:2],
6b,{8}2,2,,,{4}3,
{8},,4,4,,,{4}5,
6pp4[2:3],{8}5,5,,,{4}4,
{8},,3,3,,,{4}2-4[8:1],
2/7-5[8:1],7/2-4[8:1],2/7-5[8:1],7/2-4[8:1],
{8}2/7,8,7/2,1,2/7,6/3,4/5-8[2:1],4/5,
3,3,2,2,1,{16}1v6[8:1],8,1,8,{8}1,
,,,,,,,,6b/4-7[8:1],
3,4/2-5[8:1],1,2/8,8,7,6,
5v2[8:1],6<1[8:1],5,6,,4/8,3/7,2/6,
5/1-5[8:1],2,1/6-8[8:1],7,{4}6/3>8[8:1],{8}3/5pp8[8:3],5,
1,2,3,3,{2}5-2[8:1]*pp7[8:1],
{8}3b/5-2[8:1],6,5/7-4[8:1],8,7/1,1,2,3,
4<7[8:1],3v8[8:1],4,3,5,5,6,7,
8h[8:3],1,3,5,2h[8:3],1,7,5,
7/5,4,2/6,1/5,{4}4<7[8:1]/8>3[8:1],4/8,
{48}8h[4:1]/4h[4:1],,,,,,,,,,,,,3b/7b,2b/6b,5b/1b,,,,,,,,,{8}7-4[8:1],5/6,7/8,2,
1-5[8:1],2/4,1/8-4[8:1],7,8-6[8:1],5,8,3,
2b-5[8:1],3,2/1,8,7b-4[8:1],6,7/8,1,
2/3,4/5,1/7-4[8:1],5/6,7/2,8b,{4}8b,
7b-4[8:1]/1b-5[8:1],7/1,{8}2-5[8:1],4/3,2/1,7,
8b-4[8:1],7/5,8/1-5[8:1],2,1-3[8:1],4,1,6,
7b-4[8:1],6,7/8,1,2b-5[8:1],3,2/1,8,
7/6,5/4,8/2-5[8:1],4/3,2/7,{16}8b,8b,{4}1b,
{8}7b-4[8:1],8/1,7/2-5[8:1],1,2/6-1[8:1],7,6/4-7[8:1],3,
4/2-8[8:1],3,2,7,2/6V82[16:3],3,6/4,5,
5b-1[8:1],6,7/5,8,8b-4[8:1],1,2/8,3,
2b>5[8:1],1,2/8b<5[8:1],1,8,1b,1b,1b,
2b-5[8:1],1/8,2/7-4[8:1],8,7/3-8[8:1],2,3/5-2[8:1],6,
5/7b-1[8:1],6,7,2,7/3V17[16:3],6,3/5,4,
4b>1[8:1],5,6,7,8b<5[8:1],1,2,3,
4-7[8:1],3,4,8,{16}7/1-5[8:1],2/6,{8}3/5-1[8:1],,7h[8:5],
,3,4,5,{4}6-3[8:1],6/3,
E
&inote_6=(160){4},{8},,,,,,,,,,4/5,
E5,C,E1,
{4}7bx-5[8:1],{8}8,1,{4}2-5[8:1],{8}1,8,
{4}7-4[8:1],1-6[8:1],{8}5,5,{4}4x-8[8:1],
4x/2-5[8:1],{8}1x,8,{4}7-5[8:1],{8}8,1,
2-4[8:1],4-8[8:1],5,6,7x,B7/E7,{4}B7/E7,
2bx-4[8:1],{8}1,8,{4}7-4[8:1],{8}8,1,
{4}2-5[8:1],8-3[8:1],{8}4,4,{4}5x-1[8:1],
5x/7-4[8:1],{8}8x,1,{4}2-4[8:1],{8}1,8,
7h[4:1],3,4,5,{16}6,5,{8}6,7/3-5[8:1],2x/8x,
{4}3bx,{8}6,6,{4}7-4[8:1],{8}3,3,
2-8[8:1],4,2x-5[8:1],5,{4}6-1[8:1],{8}4,3,
2x-5[8:1],3,{4}4,{8}7x-4[8:1],6,5,3,
2h[8:1],4,2h[8:1],3,3x/2xh[4:1],B4/B3,{4}B4/B3,
5x-7[8:1],{8}3,3,{4}8x/2h[8:1],1x/7h[8:1],
{8}6-8[8:1],5,{4}4/6x>3[8:1],6x/1,{8}5,6,
7x,8x-5[8:1],,1,{4}2-7[8:1],{8}5x,4x<1[4:1],
,1,2,3,4-1[8:1],B7/B6,{4}B7/B6,
{8}7bx-1[8:1],1-5[8:1],2,3,4-2[8:1],6-8[8:1],4,6x,
{4}5x>3-7[4:1],{8}7>1-4[8:3],6,{4}5-8[8:1],5x,
{2}5x-2[8:1]/7x-5[8:1],8xv2[8:1]/4xv6[8:1],
5x-2[8:1]/7x-5[8:1],8xv2[8:1]/4xv6[8:1],
{8}1bx-7[8:1],5-7[8:1],1-5[8:1],5,1x-3[8:1],4x,1x,6x,
7qq7[4:1],4,7xpp7[4:1],2,{2}3xpp3[16:3],
8x-4[8:1]/2x-6[8:1],1x-5[8:1]/7x-3[8:1],
{8}4xpp4qq4[2:1],,,,,8x,{4}8x-4b[8:1],
{8}8b<5[8:1],5,8,3,2>5[8:1],5v2[8:1],6,7,
8>3[8:1],7v4[8:1],8x,7x<5v8[4:1],,1,2,3,
4-6[8:1],4,7-3[8:1],7,{4}1-4[8:1]*-6[8:1],1x,
{8}5,6`4,7h`3h,2h`8h,1-5[8:1],5x,{4}5x,
{8}7b-4[8:1],3-8[8:1],7,3,6-1[8:1],5-2[8:1],6,5,
7-4[8:1],8-3[8:1],7,8,{4}6<1[8:1],{8}6/5,4,
{4}3<6[8:1],{8}1,1,8<5[8:1],3,3,2-7[8:1],
,5V36[4:1],,5x,{16}8-5[8:1],1,{8}2,{4}8x/3x,
1b>4[8:1],{8}1/5,6,7<4[8:1],4v7[8:1],3,2,
1<6[8:1],2v5[8:1],1,2>4v1[4:1],,8,7,6,
5-3[8:1],6,2-6[8:1],1,{4}8-5[8:1]*-3[8:1],8,
{8}4,3`5,2h`6h,7h`1h,8-4[8:1],4x,{4}4x,
{8}2b-5[8:1],6-1[8:1],2,6,3-8[8:1],4-7[8:1],3,4,
2-5[8:1],1-6[8:1],2,1,{4}3>8[8:1],{8}3/4,5,
{4}6>3[8:1],{8}8,8,1>4[8:1],6,6,7-2[8:1],
,4V63[4:1],,4,{16}1,8,{8}7,6/1,2/5,
{1}3x/4xz8-5[8:13],
{2},4x-1b[8:1],
{8}B8,C,{4}B4,{8}E2,C,B6,A6,
B4/E4,B7/E7,B1/B2,E6/B5,{2}Ch[4:1],
{1}6<1-6<8[2:3]/2>5-2>4[2:3],
{8},,,,,,,,6-8-2[4:1]/2-4-6[4:1],
,,,,,,5-1[2:1],
,,{4}5x-1b[8:1],{2}5bx,
{8}Cf/7bqq5[8:1],6,3xqq1[8:1],2,{4}7<4[8:1],{8}8x/7,1x,
2<7[8:1],4x,2>5[8:1],6,6/2x,7,8,1/3,
{4}4h[8:3]/2b<7b[8:1],2,3h[8:3]/2b<7b[8:1],2,
3/4-8[8:1],4/5-1[8:1],5/6-2[8:1],6/7<4[8:1],
{8}7bx/1b>4[8:1],8,1/5-1[8:1],6,5-7[8:1],3,5,1,
8-4[8:1],7-5[8:1],8,7,2-6[8:1],1-7[8:1],2,1,
4-2[8:1],5-7[8:1],4-8[8:1],5-1[8:1],4x>1[8:1],5x<8[8:1],4x,5x,
{16}1,1,{8}8x,{16}5,5,{8}6x,4/7h[8:3],4,{4}Cfh[4:1],
{8}8b-3b[8:1],2,8-5b[8:1],5,8-3b[8:1],3,8-5b[8:1],6,
{4}8x/6x-3b[8:1],{8}6x/1<6[8:1],2,{4}1x/4,{8}5<2[16:3],6,
{4}5b/4-8[8:1],{8}4,7,{4}5-7[8:1],{8}5/4>7[16:3],3,
{4}4b/5-1[8:1],{8}5,2,4q8[8:1],1b,{4}1b,
{8}1b-6[8:1],7,1-4[8:1],4,1-6[8:1],6,1-4[8:1],3,
1/5-8[8:1],6,3-6[8:1],4,1-4[8:1],8,5x,5x,
{4}5x-1[8:1],{8}5b,7x,{4}4x-2[8:1],{8}4b/5-7-3-1[8:5],6,
,1,,4x,4x,8b,{4}8b,
Ch[1:2],{8}B5,B4,,,B5,B4,
,,E6,E4,,,B6,B3,
E5,E6,E7,E8,{4}E1/E5,E7/E3,
{8}B2,B3,B7,B6,Ch[4:1],B8/B1,{4}B8/B1,
{8}3x/6xh[8:1],4,6/3h[8:1],5,4/7h[8:1],5,5/2h[8:1],4,
3x>8[16:3],4,5,5,6x<1[16:3],5,4,4,
4x,4/8,3/7,2/6,1/5,{16}8x-4[8:1],1x/5x,2x/6x,3x/7x,{8}4bx/8b,
,,,,{4}Ch[4:1],8xw4[8:1],
8b`Cf`B8`B5`B3`B4,{8}7x-5[8:1],5-2[8:1],2-4-8[4:1],1,{4}8,
{8}2,1>4[8:1],8/7,1x/6xv8<7-4[16:5],,1/6,2,3,
3b>8[8:1],4,3/5<8[8:1],4,{4}5/1bxV75[8:1],{8}1x/4-2[8:1],3,
4b/6-8[8:1],5,6b,1,1x/5xp8[8:1],8b,{4}8b,
{8}7/2b-6[8:1],1,2/8-4[8:1],7,8/5-7[8:1],6x,5x-1[8:1],3,
5<8[8:1],2,5>2[8:1],1,{4}5/1<6[8:1],{8}1x/3x,4,
5v2[8:1],6<1[8:1],5,6,3v8[8:1],4<7[8:1],3,4-1[8:1],
,4/7xV58[16:3],,7/1,{16}2,3,{8}4,1/5,7/3,
E7,E3,{4}Cf/B8/B1/B4/B5/E5/E1,{8}7bxp3b[8:1],6x/5x,7x,8,
5x/8-4[8:1],1x,8/6<1b[8:1],5,6/2,2,3,4,
7/5b-3[8:1],8-6[8:1],5v2b[8:1],8,{4}5b-7>8b[8:1],{8}5x/1x,1,
2b>5[8:1],4,2b<7[8:1],8,2b-6[8:1],4b,{4}2/4b,
{8}2/7b-3[8:1],8,7/1x-5[8:1],2,1/4x-2[8:1],3x,4-8[8:1],6,
4b>1[8:1],7,4<7[8:1],8,{4}4b/8>3[8:1],{8}8bx/6,5,
4v7[8:1],3>8[8:1],4,3,6v1[8:1],5>2[8:1],6,5-8[8:1],
,5x/2xV41[16:3],,2/8,{16}7,6,{8}5,1>2-5b[8:1]/5<6-1[8:1],2/6,
1b/5b`Cf,,,4/3,2-5b[8:1],3/4,2,1,
4/1b-5[8:1],8,1/3-8b[8:1],4,3/7,7,6,5,
2/4b-6b[8:1],1b-3b[8:1],4bv7[8:1],1b,{4}4b-2<1[8:1],{8}4x/8x,8,
7b<4[8:1],5b,7b>2[8:1],1b,7b-3b[8:1],5b,{4}7/5b,
{8}7/2b-6[8:1],1,2/8-4[8:1],7,8/5-7[8:1],6,5-1[8:1],3,
5b<8[8:1],2,5>2[8:1],1,{4}5b/1<6[8:1],{8}1b/3,4,
5v2[8:1],6<1[8:1],5,6,3v8[8:1],4<7[8:1],3,4-1[8:1],
,4/7V58[16:3],,7/1,{16}2,3,{8}4,1/5,2b/6bh[8:5],
,2,3,4,{4}5qq5[16:3]*pp5[16:3],5b,
E
