&title=Mayday
&artist=月詠み
&des=king822kk
&first=0
&lv_5=14
&inote_5=(172)
{16},,,,
{8}1,1,1,28,3b/7b,,7V16-2[8:3]/4,,3,3,4,4,31,8,7,,
{8}18,18,18,28,
{8}1/8-4[8:1],7,1-5[8:1]/8,2,1/8-4[8:1],7,1/8,3,
3V14-8[8:1]/1,8,7,,
{8}1,1,1,28,3b/7b,,7V16-2[8:3]/4,,3,3,4,4,31,8,7,,
{8}81,81,81,71,
{8}8/1-5[8:1],2,8-4[8:1]/1,7,8/1-5[8:1],2,8/1,
{16}3,,2b/4b,,,,6,,7b/5b,,,,18,,
{48}1b/8b,27,36,54,,,,,,,,,
{8}3h[8:1],4,2,
{16}3,4,3,4,3,,5,,2,,5,6,5,6,5,,7,,4,,
{8}2h[8:1],1,8h[8:1],7,3h[8:1],4,2,
{16}2,1,2,1,2,,8,,3,,8,7,8,7,8,,6,1,,3,8,,1,28,,
{8}3h[8:1],4,2,4,
{16}3,4,3,4,3,,5,,2,,5,6,5,6,5,,7,,4,,
{8}2h[8:1],1,8h[8:1],7,
{16}2,1,2,1,2,,8,,3,,8,7,8,7,8,,6,1,,
{8}18,1,1,28,3b/7b,,7V16-2[8:3]/4,,3,3,4,4,31,8,7,,
{8}18,18,8,2-5[8:1],1,7-4[8:1],8,2-5[8:1],1,7-4[8:1],
8,1,2,3,2b/7b,,
{8}8,8,8,71,6b/2b,,2V83-7[8:3]/5,,6,6,5,5,68,1,2,,
{8}81,81,1,1,7^4[8:1],8,2^5[8:1],1,7^4[8:1],8,2^5[8:1],
1,8,7,6,7b/2b,,45,
{16}36,,27,,18,,1^6[8:1],,7x,7x,1^4[8:1],,4x,4x,1x,,8x,8x,3x,,
{16}4,5,4,5,4,,3,,3,,24,,
72,,81,,8^3[8:1],,2x,2x,8^5[8:1],,5x,5x,8x,,1x,1x,6x,,
{16}1,8,1,8,1,,2,,2,,31,,48,,54,,5^2[8:1],,3x,3x,5^8[8:1],,8x,8x,5x,,4x,4x,7x,,
{16}5,4,5,4,5,,6,,6,,75,,84,,18,,1^6[8:1],,7x,7x,1^4[8:1],,4x,4x,1^6[8:1],,
7x,7x,1^4[8:1],,4x,4x,1x,,5bx/7b,,,,
{8},,1,2,8,7,1-3[8:1]/8-4[8:1],,1b/8b,,1-5[8:1]/8-6[8:1],,1b/8b,,
{8},,1,28,37,2,8,
7V16-2[8:3]/4,,3,3,4,4,31,8,7,
{16}2,1,2,,8,,6,5,6,5,,3,4,3,,,
{8}1-3[8:1]/8-4[8:1],,1b/8b,,1-5[8:1]/8-6[8:1],,1b/8b,,
{8},,1,28,37,2,8,
7V16-2[8:3]/4,,3,3,4,4,31,8,7b/3b,
{48},1b,2,3,4,,,,,,,,8b,7,6,5,,,
{16},,4,5,4,5,4,5,4,5,
{8}1w5[8:1],,1b,,8w4[8:1],,8b,,
{8},24,3V14-8[8:3]/1,8,7,6,7,,,
{8}2-5[8:1]/7-4[8:1],3/6,7b/2b-8[8:1],,2/6-2[8:1],7,6/4-1[8:1],3,
{8}4/7,8,3/7,4/5,3b/6b,,,
{8}8<5[8:1],,
{48}8/1b,2,3,4,,,
{8},1>4[8:1],,
{48}1/8b,7,6,5,,,
{8},,75,6V85-1[8:3]/8,1,2,3,2,,,
{8}8/1-5[8:1],2,8-4[8:1]/1,7,
{8}1^4[8:1]/8,2,1/8^5[8:1],7,
8,2-5[8:1],1,7-4[8:1],8,2^5[8:1],1,7^4[8:1],
1-5[8:1],8-6[8:1],1b-3[8:1],8b-4[8:1],1b,8b,,
{8}8<5[8:1],,
{48}8/1b,2,3,4,,,
{8},1>4[8:1],,
{48}1/8b,7,6,5,,,
{8},,1^4[8:1],5,6,5,1^6[8:1],5,4,5,
{16}1/6,,7,8,7-4[8:1],8,7,,7/1-5[8:1],,2,,1/8,,7,,
3/8,,2,1,2-5[8:1],1,2,,2/8-4[8:1],,7,,1/8,,2,,
{16}1/6,,7,8,7-4[8:1],8,7,,7/1-5[8:1],,2,,1/8,,7,,
3/8,,2,1,2-5[8:1],1,2,,2/8-4[8:1],,7,,1/8,,2,,
{16}
1,8,1,8,2,7,2,7,3,6,3,6,4,5,4,5,
3,7,3,7,3,7,3,7,4,7,3,7,2,7,1,7,8,6,8,6,4,5,4,5,3,1,3,1,4,5,4,5,
3,7,3,7,3,7,3,7,3,7,
{8}4,4,4,4,2bV41-5[8:3]/4,5,6,7,6,8,7,1,2w6[8:1],,2b,,
{8}7bh[8:1]/D6h[8:1]/A5h[8:1]/A6h[8:1],,7bh[8:1]/D2/A1/A2,,7bh[8:1]/E6h[8:1]/B5h[8:1]/B6h[8:1],,
2bh[8:1]/E8/B7/B8,,2bh[8:1]/D4h[8:1]/A3h[8:1]/A4h[8:1],,2bh[8:1]/D8/A7/A8,,,
{8},4,4,4,4w8[8:1],4,4b,,
{8}8-4[8:1],7,6,5-1[8:1],4,3,2-6[8:1],1,,
{8},3,4,6,5,2h[8:1]/C,,6h[8:1]/C,,1h[8:1]/C,,5h[8:1]/C,,
{32}8,7,6,5-2[8:1]*-8[8:1],4,3,2,
{8},5b,,,,
{32},
{16}1/6,,7,8,7-4[8:1],8,7,,7/1-5[8:1],,2,,1/8,,7,,
{32}1x,2x,3x,6x,,,,8x,7x,6x,3x,,,,,,
{8}2b/4b,7b/5b,3b/4b,6b/5b,
{16}8/3,,2,1,2-5[8:1],1,2,,2/8-4[8:1],,7,,8/1,,2,,
{32}8x,7x,6x,3x,,,,1x,2x,3x,6x,,,,,,
{8}7b/5b,2b/4b,6b/5b,,
{16}5/2,,3,4,3-8[8:1],4,3,,3/5-1[8:1],,6,,5/4,,3,,
{32}1b/8b,27,36,,,1b/8b,27,36,,,,,
{16}3,4,3,,6,5,6,,3,4,3,,2,1,2,,3,4,2,,6,5,7,,2,3,1,7,8,Cf,,,
{16},5,4,5,4,5,4,5,4,5,4,,,
{32}1b/8b,27,36,,,,,,1b/8b,27,36,,,,,,4b/5b,36,27,,,,,,1b/8b,27,36,,,,,,,
{32}1,2,3,4,5,6,7,8,1,2,3,4,5,6,7,8,1,,Ch[8:1],,,,B2/E3/B3/E7/B7/B6,,,,,,,
{8}7^4[8:1]/8,6,7/8^3[8:1],1,7^4[8:1]/8,6,7/8^3[8:1],1,
{8}7^4[8:1]/8,6,7/8^3[8:1],1,7,,,
{8}2-5[8:1]/6-1[8:1],,2b/6b,,7-4[8:1]/3-8[8:1],,7b/3b,,
{8}7V16-2[8:3]/4,,3,3,4,4,31,8,7,
{8}2b/7b,4b/5b,2b-7[8:1]/6b-3[8:1],,
2>5[8:1]/6<1[8:1],,2b/6b,,4bx/8bx,,
{8}1,2,8,7,18,27,,
{32}1b/8b,27,36,,,,,,1b/8b,27,36,,,,,,4b/5b,36,27,,,,,,1b/8b,27,36,,
{8},,2-5[8:1]/7-4[8:1],3/6,7b/2b-8[8:1],,2/6-2[8:1],7,6/4-1[8:1],3,
{8}4/7,8,3/7,4/5,3/6,1/8,2/7-4[8:1],4,
{8}7/2-6[8:1],1,2/7,,,
{8}8<5[8:1],,
{48}8/1b,2,3,4,,,
{8},1>4[8:1],,
{48}1/8b,7,6,5,,,
{8},Cf,,75,6V85-1[8:3]/8,1,2,3,2,,,
{8}45,36,27,18,
{8}1-3[8:1],8-4[8:1],1-5[8:1],8-6[8:1],
1-3[8:1],8-4[8:1],1-5[8:1],8-6[8:1],
1-4[8:1],8-6[8:1],1-5[8:1],8-4[8:1],1b,8b,,,,,
{8}1-3[8:1]/8-4[8:1],,1b/8b,,1-5[8:1]/8-6[8:1],,1b/8b,,
{8},,1,28,37,2,8,8,8,,
{4}1>4[8:1],5<8[8:1],1>4[8:1],5<8[8:1],
2-7[8:1],6-3[8:1],2-7[8:1],6-3[8:1],
1-4[8:1],5-8[8:1],1-4[8:1],5-8[8:1],
{16}A5f,,2,7,2,7,2,7,3,6,3,6,3,6,4,5,4,5,4,5,3,5,3,5,3,5,
4,6,4,6,4,6,2,5,2,5,2,5,1,4,1,4,1,4,3,8,3,8,3,8,
2,7,2,7,2,7,3,6,3,6,3,6,4,5,4,5,4,5,3,5,3,5,3,5,
4,6,4,6,4,6,2,5,2,5,2,5,1,4,1,4,1,4,3,8,3,8,3,8,
4,5,4,5,3,6,3,6,2,7,2,7,1,8,1b,8,
2,6,2b,6,2,6,2b,6,1,6,2b,6,3,6,3b,6,3,4b/5b,
{8}27,18,1,2,8,,1-3[8:1]/8-4[8:1],,1b/8b,,1-5[8:1]/8-6[8:1],,1b/8b,,
{8},,1,28,37,2,8,
7V16-2[8:3]/4,,3,3,4,4,31,
{8}1^6[8:1]/2,8,1/2^5[8:1],3,1^6[8:1]/2,8,1/2,,Cf,,
{8}1w5[8:1],,1b,,8w4[8:1],,8b,,
{8},24,3V14-8[8:3]/1,8,7,6,7,,Cf,,
{8}3,2/7^4[8:1],6,7/1-5[8:1],2,1/8-4[8:1],7,8/2,
{32}1,2,3,4,5,6,7,8,1,2,3,4,5,6,7,8,1,,,,,,,
{32}1b/8b,27,36,,,,,,1b/8b,27,36,,,,,,4b/5b,36,27,,,,,,1b/8b,27,36,,,,,,
{32}1,2,3,4,5,6,7,8,1,2,3,4,5,6,7,8,1,,Ch[8:1],,,,B2/E3/B3/E7/B7/B6,,,,,,,
{8}2-5[8:1]/7-4[8:1],3/6,7b/2b-8[8:1],,2/6-2[8:1],7,6/4-1[8:1],3,
{8}4/7,8,3/7,4/5,3/6,1/8,2/7,4,,
{32}1b/8b,27,36,,,,,,1b/8b,27,36,,,,,,4b/5b,36,27,,,,,,1b/8b,27,36,,,,,,
{8}1^4[8:1]/8^5[8:1],,18,,36,2b/7b,
{8}8/1-5[8:1],2,8-4[8:1]/1,7,
{8}1^4[8:1]/8,2,1/8^5[8:1],7,
8,2-5[8:1],1,7-4[8:1],8,2^5[8:1],1,7^4[8:1],
1-5[8:1]b,8-6[8:1]b,1b-3[8:1]b,8b-4[8:1]b,1b,8b,,,
{8}8<5[8:1],,
{48}8/1b,2,3,4,,,
{8},1>4[8:1],,
{48}1/8b,7,6,5,,,
{8},Cf,,64,37,28,,
{32}1,2,3,4,5,6,7,8,1/C,2,3,4,5,6,7,8,1/C,2,3,4,5,6,7,8,
1/C,2,3,4,5,6,7,8,1/C,2,3,4,5,6,7,8,1/C,2,3,4,5,6,7,8,1/C,
2,3,4,5,6,7,8,1/C,,,,
{16}1,8,1,8,1,8,2,8,2,8,3,8,3,8,4,8,4,8,7,6,5,8,1,2,3,8,7,6,5,4,3,2,1,
4,8,4,8,4,7,4,7,4,6,4,6,4,5,4,5,4,3,2,1,4,5,6,7,4,3,2,1,8,7,6,5,
8,3,8,3,7,2,7,2,6,1,6,1,5,8,5,8,5,6,7,8,4,3,2,1,5,6,7,8,1,2,3,
{8}1,1,1,28,3b/7b,,7V16-2[8:3]/4,,3,3,4,4,31,8,7,,
{8}18,18,18,28,
{8}1/8-4[8:1],7,1-5[8:1]/8,2,1/8-4[8:1],7,1/8,3,
3V14-8[8:1]/1,8,7,,
{8}1,1,1,28,3b/7b,,7V16-2[8:3]/4,,3,3,4,4,31,8,7,,
{8}81,81,81,71,
{8}8/1-5[8:1],2,8-4[8:1]/1,7,8/1-5[8:1],2,8/1,
{16}3,,2b/4b,,,,6,,7b/5b,,,1,,2b/8b,,
E
