&title=RONDØ
&artist=Ashrount
&first=-0.731
&des=Toler
&clock_count=4
&wholebpm=157.000
&lv_5=14
&des_5=
&inote_5=(157)
{4},,,,,,,
{32}A6,E6,E5,E4,A3,,,,
{4}1b>8[4:6]/8b<1b[4:6],,,,,,,,7pp6[4:5]/3pp2b[4:5],,,,,,,1-5[16:1],,
{8}
{16}3h[8:1]/4h[8:1],,,2h[8:1]/8h[8:1],,,46,,7-4[16:1]/3-8[16:1],,,,,,,,1h[8:1]/5h[8:1],,,3h[8:1]/4h[8:1],,,65,,1w5b[16:1]/8,,,,,,,,3h[16:1]/7h[16:1],,8h[16:1]/2h[16:1],,5h[16:1]/1h[16:1],,7h[16:1]/4h[16:1],,2w6[12:1]/5h[16:1],,3h[16:1]/7h[16:1],,2b<2[2:1]*>2[2:1],,,,,,,,,,,,,,,,
{8}D8/E8/A7/A8/B7/D4f/E4/A3/A4/B3,,
{16}5/6,5h[8:1],,7,7h[8:1],,1,1h[8:1],,3,3h[8:1],,5,5h[8:1],,7,,,8h[16:1]/4h[16:1],,3h[16:1]/7h[16:1],,2h[16:1]/6h[16:1],,
{24}5<1>4[2:1]/1-5b[12:1],,51,,51,,5b/1b,,,
{8},,,,2h[8:1]/6h[8:1],A8/B8/Cf/B4/A4,,
{16}4x/6hx[8:1],,5,,7<4[12:1],,18,,7/3,,2,2,4,3,5,,8x/2hx[8:1],,1,,3>8[12:1],,54,,3/7,,6,6,8,7,1,,35,,3,4,2h[8:1],,8,8,1,,6,57,,3,24,,18,,
{24}8,7,6,2,3,4,7,6,5,4h[16:1]/2h[16:1],,,,4h[16:1]/6h[16:1],,,,D7f/A7/B7/A3/B3/D4,,
{16},8/2h[8:1],,1,,3/5h[8:1],,
1,,78,,6,4,5,3,4,,5/3h[8:1],,4,,2/8h[8:1],,4,,65,,7,1,8,2,1,,53,,6,6,5,,3,3,4,,2h[16:1]/8h[16:1],,,3h[16:1]/7h[16:1],,,
{24}6,5,6,,,3,4,3,,12,38,4-1[12:1]/7-4[12:1],,,2h[16:1]/6h[16:1],,,,,,
,,,,8p4v7<5b[4:5]*q4v1>3b[4:5]/Cf,,,,,,
{4},,,,,,Cf/B7/B3,
{24}2b-6[12:1],,,8b-4[12:1],,,
{16}2,,8,,3h[8:1],,5,5,4,6,5,,7,8,6,3,4,2,1,,8h[8:1]/3h[8:1],,,5h[8:1]/6h[8:1],,,34,,
{16}2/5,,46,,8<5[12:1],,4>1[12:1],,8w4[8:1],,4,,,,,,26,,
{32}E6,B5,B4,E4,
{12}1,2pp5[12:3]/8,3/7-5-1b[12:2],,,,,,,
{16}8x<5[12:1]/4x,,1,,83,,2>5[12:1],,14,,
{24}5,6,7,8,,,1,,,
{16}3,24,,6,57,,
{32}1b/8b,2/7,36,45,,,,3h[32:2]/7h[32:2],,,,,
{32}7bx/3bx,6x/2x,5x/1x,4x/8x,,,,,E6f/B5h[2:1]/E5/8b>6>1[4:6],,,,,,,,
{4},,,7h[2:1],,,,A8f/D1/E1/7b-4-1-6[2:1],,6bx-3-8-5[2:1],,5bx-2-7-4[2:1],,4bx-1-6[4:1],,2bx-5-8-3b[2:1]/E6f/D6/A6,,3bx-6-1-4b[2:1],,4bx-7-2-5b[2:1],,5bx-8-3b[4:1],,7<1>7[4:6]/A3f/E4h[2:1]/D4,,,,8xh[2:1],,,,D7/A7/B7/A3/B3/D4f,
{32}8,7,6,5,2,3,4,5,7-3[12:1],,,,1-5[12:1]/8,,
,,7>5b[4:1],,,,1,,,,7b,,,,,,,,
{24}8,1,2,3,4,5,67,,,28,,,
{12}4,35,26,1hb[8:1]/7hb[8:1],,,
{16}28,,3,4,25,,17,,
{12}2h[32:1]/6h[32:1],2h[32:1]/6h[32:1],2h[32:1]/6h[32:1],
{32}E3/6xbh[32:1],E4,E5,E6,E7,E8,E1,E2,E3,E4,E5,E6,E7,E8,E1,E2,E3,D4,D5,D6,D7,D8,D1,D2,D3,D4,D5,D6,D7,D8,D1,D2,D3f/A2/A3/E3/6xqq3[4:3],,,,,,,,
{8},,2,,,,2qq5<4[4:6],,,,5,,,,B1/B8/E1,,,,4>5[4:3],,,,B4/B5/E5,,,,4-8b[12:1],,,,
{16}1bx<6[12:1]/2xh[16:1],,,3,,,4,,5bx>2[12:1]/6xh[16:1],,,7,,,8,,
{24}1h[8:1]/2,,,3,4,5,8h[8:1],,,6,5,4,7h[8:1],,,2,1,8,6h[8:1],,,7,8,1,
{8}5h[16:1]/2h[16:1],3h[16:1]/4h[16:1],8h[16:1]/2h[16:1],6h[16:1]/5h[16:1],
{24}7b/4,8,1,2,3,4,
{32}1b/5,8,7,6,5,4,3,2,1xbs5[1.15##0.125]/8xbz4[1.15##0.125],,,,,,,,,,,,,,,,,,,,,,,,1b/Cf/8b,,,,,,,,
{16}3,3,4,2-5[12:1],,18,,7,,6h[8:1],,5,6,4,5-8[12:1],3,4,,2,2,,1-3[12:1],,1-7[12:1],,1-5b[12:1],,,,,,,6,6,5,7-4[12:1],,18,,2,,3h[8:1],,4,3,5,4-1[12:1],6,5,,7,7,,8,,12,,35,,D3f/A2/B2/A6/B6/D6,,,,,
{16}7,7,8,6,,71,,2/4>8[6:1],,56,,8,7,6,5,4,3h[8:1],,1,1h[8:1],,5,,5h[8:1],,7h[8:1],,1h[8:1],,3h[16:15],,,6hx[16:12],,,,,,,,,,,,,,,,
{24}2b,8,2,8,2,8,2,8,2,8,2,8,1b,7,1,7,1,7,1,7,1,7,1,7,2b,6,2,6,2,6,3b,5,3,5,3,5,4bh,4h,4h,4h,4h,4h,4h,4h,4h,4h,4h,4h,4b>8<5[4:6]*z8[4:3],,,,,,
{4},,,,,,,3<6[4:5],,2,,,,E2/E3,,6>3[4:5],,7,,,,E7/E6,,2-4-6[2:1],,E7,,7-5-3[2:1],,E3,,1h[8:4],
{16},,E5,E6,E7,E8,E1,E2,E3,E4,E5,E6,3s7[16:5]/6xz2[16:5],,,,,,,,,,,,
{32}A3,E4,E5,E6,A6,,,,
{8}1h[8:1],,1h[8:1],,2h[8:1]/8h[8:1],,2h[8:1]/8h[8:1],,82,3,74,5,61,7,83,1,
{16}2,2,3,3,4,4,5,5,6,6,7,7,8,8,1,1,
{32}2,3,4,5,6,7,8,1,2,3,4,5,6,7,8,1,A2hf[4:1]/E2hf[4:1]/E3hf[4:1]/E7hf[4:1]/E6hf[4:1]/A6h[4:1],,,,,,,,,,,,,,,,
{16}17,,3,3,4<8[8:1],,8/2-6b[12:1],,4,,2,,
{24}1b-4[12:1]/5bx,48,3/7,2/6-3[12:1],,,1,,,6,,,8,,,
{16}87,16,5/2pp5b[16:3],,4,,6,,8<5[12:1],,1,,
{24}48,3,2,1,,,2>5b[12:1]/6,,,17,,,12,8,7,6,,,74,,,
{16}6,6,4,5,3,3,5,4,6,5,7-3[12:1],,82,,7/3,,
{16}4>1[12:1],,5,5,,6,6,,
{32}8b/7b,6,5,4,,,1b/2b,38,47,56,,,73,,,,
{16}5<8[12:1]/2,,4,4,,3,3,,
{32}1b/2b,3,4,5,,,8b/7b,
61,52,4-1[12:1]/3,,,2/5,,,,46,,,,7<4[12:1],,,,
{16}8,1,7,,2,2,4,4,5,5,7,7,
{24}2b,3,4,5/8bh,6,7,8/3bh,1,2,3/6bh,4z8b[6:1],5,8b-5b[8:1],,,,,,,,,,,,
{16}17,,6,6,5>1[8:1],,1/7-3b[12:1],,5,,7,,
{24}8-5[12:1]/4b,51,6/2,7/3-6[12:1],,,8,,,3,,,1,,,
{16}12,83,4/7qq4b[16:3],,5,,3,,1>4[12:1],,8,,
{24}51,6,7,8,,,7<4b[12:1]/3,,,82,,,87,1,2,3,,,25,,,
{16}3,3,5,4,6,6,4,5,3,4,2-6[12:1],,17,,2/6,,
{16}5<8[12:1],,4,4,,3,3,,
{32}1b/2b,3,4,5,,,8b/7b,61,52,43,,,26,,,,
{16}4>1[12:1]/7,,5,5,,6,6,,
{32}8b/7b,6,5,4,,,1b/2b,
38,47,5/6,,,7/4,,,,
{16}5,6,5,7,8,6,3,4,2,8,5,3,7,1,6,4,
{24}8b,7,6,5,4,3,7b,6,5,4,3,2,
{32}8bz4[8:1],1s5b[12:1],8,1,8,1,8,1,8b/Cf,,,,,,,,
{16}6x-3[12:1],6xh[8:1],,7-4[12:1],,
8,,1,1,,,,3x-6[12:1],3xh[8:1],,2-5[12:1],,1,,8,8,,,,
{16}7x-4[16:1],7h[8:1],,8-5[16:1],8h[8:1],,1-4[16:1],1h[8:1],,2x-5[16:1],2h[8:1],,6x-2[16:1],6h[8:1],,7x-4[16:1],7h[8:1],,8,8,,2,2h[8:1],,1,,8/E3f,,
{32}7-3[12:1],6,5,4,8,1,2<8-6-4z8b[1:3],3,7b>1-3-5s1b[32:94]/Cf,
