&title=アルビレオ
&artist=ロクデナシ
&first=1.69
&des=slug and JDJDH
&lv_5=13
&inote_5=(144)
{4}
4/6h[8:4],,7h[8:4],,8h[8:4],,1h[8:4],,
3h[8:4],,4h[8:4],,5w1[4:5],,,,,,,1b,
{8}
3<5[8:1],2,,7<5b[8:1],8,,2<8[8:1],3,,6<8b[8:1],5,,
2,1,8,7,
6>3b[8:1],7,,2-5[8:1],1,,7-4b[8:1],8,,3<6[8:1],2,1,8>2[8:1],7,8,,
7>1[8:1],6,,3<5b[8:1],2,,7<5[8:1],8,,3>1b[8:1],4,,8,7,6,5,
4>1b[8:1],5,,7<4[8:1],8,,2<7b[8:1],3,,4,5,36,36,B7,B2,,
{4}
4/5-7[8:1],,8/1-3[8:1],,4/6-4[8:1],,3/2-8[8:1],,
7<5[8:1],,4/2>4[8:1],,5/6<8[8:1],,2-6[8:1],8b-4b[8:1],
3-5[8:1],,7<4[8:1],,2p6[8:1],,4w8[8:1],,
2-5[8:1]/6-1[8:1],,3>8[8:1]/7<4[8:1],,
{8}
2h[8:1],4h[8:1],8h[8:1],6h[8:1],4h[8:2],C,8b,,
7-5[8:1]/3,3,2,2,1/4-8[8:1]b,1,2,3,1,8,7,6-1[8:1]b,5-2[8:1],,,,
2>4[8:1]/6,6,7,7,8/5p1[8:1]b,8,7,7,6,5,4,3,5-8[8:1]/4-1[8:1],36,4b/5b,,
7-5-3[4:1]/3,3,2,2,1,1,1pp4[2:1]/5,5,6,6,7,7,8-6>5[8:1],,2,1,
8/6h[8:1],7,6h[8:1],5,6h[8:1],4,3,2,
7h[8:1],5h[8:1],1h[8:1],3h[8:1],5h[8:2],C,1b,,
34,2,1q5[8:1],,B4/B5/E5,,,6,6h[8:2],,5h[8:2],,4<7[8:1],,,
3,2>5[8:1],2,1,8,7>2[8:1],6,5,4,4-6-2-8[8:3],,24,,3h[8:4],,,,
{4}
D6,,D5,,D4,,C,,
{8}
3b/6b,,5,5,4,4,6,6,35,3,36,6,
45,45,4/5-8b[8:3],4-1[8:2]/5,45,,,,,
4,5/3>7[8:2],6,3b/7q4[8:2],,4v7>2[8:4],,6,,5,5,4-7b[8:1],3-8[8:1],4,3,,
5,6/4pp4[8:2],3,24,1,8,8qq1>4[8:5],,28,3,3h[8:6],,,,,
,5>1[8:2],6,7,,8<5[8:1],2,4pp4[8:2],,1/4>7[8:2],,2,,3,4,5>2[8:1],,
6,6,7,8,1>6[8:2],2,13,,8,1,2,37,5,4,
{16}
8,1,8,,
{8}
1,8/2>6[8:2],7,2b/6p1[8:2],,1v6>3[8:4],,7,,8,8,1-6b[8:1],2-5[8:1],1,2,,
8<5[8:1],17,2h[8:2],,4>1b[8:1],35,6h[8:2],,8,17,2pp1[8:3]/6pp5[8:3],,,,,
,7-4[8:1]/8-4[8:1],1,78,,2/1>4[8:1],8,17,
,6<1[8:1]/5q1[8:1],4,65,,2p6[8:1],35,24,,5,4,6,7-4b[8:1],8-3[8:1],7,8,,
1w5b[8:1],37,1,,,1q1[4:1],,1v6[6:1]b*>5[6:1],,,,
8x/7x,6,5,4x/3x,2,1x/8x,7,6,5x/4x,3,2-5[8:1],1-6[8:1]b,2,1,B2/B1/E2/D2,C,
5x/6x,7,8,1x/2x,3,4x/5x,6,7,8x/1x,2,3h[8:1],5h[8:1],7h[8:1],A1,C,,
6bh[4:1]/4,,5,,3bh[4:1]/5,,4,,
7bh[4:1]/B3,,8,,2/1,,
4/3,2,1v3[8:1],,6,7,8-5[8:1]b,,3-7[8:1],2x,1-5[8:1]/3x,,1x-3[8:1]*-6[8:1],,,,7b,,2-4[8:1],6,2-8[8:1],6,2-6[8:1],7,2,5,2-5[8:1]b,3,6/2,7,8<5[8:1],,1,2,3>8[8:1],
{16}
,3,4,,5,,6,,
{8}
7/8,7/8,1/6,1h[8:1]/6h[8:1],,2h[4:7]/5h[4:1],,,,1,1b-5b[8:7],,,,,,,,,,,,,,,,,
E8,,,,E2,,,,E4,,,,E6,,,,D1,,,,D5,,,,D3,,,,D7,,,5,
46,3,4/2-5[8:1],,12,,,6,5/6h[8:3],,7<4[8:1],8,1,,,,
2b/6b,,35,3,46,6,37,3,26,26,37,37,48,37,26,1V35[8:5]/5,
{4}
1b/5bV71b[8:4],,,,
{8}
4/6h[8:2],,A1,,5/3h[8:2],6,7,,
5/6h[8:2],,A2,,4/3h[8:2],5,6,,
4/6h[8:2],,A1,,5/3h[8:2],6,7,,
5/6h[8:2],,A1,,4/2h[8:2],6,8,,
{4}
3/5-8[8:2],,1h[4:1],3h[4:1],5h[4:1],8h[4:1],7h[4:1],6h[4:1],
5,35,47,26,
{8}
34,56,78,
{16}
1,8,27,,
{8}
45,1b/8b<3b[8:2],2,
3bq8[8:2]/8b,,8v3<7b[8:3],,2,,1,2,8/3-8[8:1],7/4-7b[8:1],3,4,,1,2-5[8:1]/8,3,
24,6,8,8>4qq7[8:6],,78,6,6h[8:5],,,,,
,58,14,2b/3b,,41,85,7b/6b,,
2-5[8:1]/6pp4b[8:3],,2b/6b,,3,2,1bh[8:2],,4,35,46,7p3b[8:1],8>6[8:2],7,8b,,1,8,7,
56,34,12,
{16}
8,1,27,,5,4,5<2b[8:2],4,5,,
{8}
2bp5[8:2]/5b,,5v2<6b[8:3],,3,,4,3,5/2-5[8:1],6/1-6b[8:1],2,1,,
4<7[8:1],3,4b/2h[8:2],,8>3b[8:1],7,8b/6h[8:2],,4pp8[8:4],3,4b/2h[8:4],,,,,,
2-4[8:1]/8-3[8:1],1,2/8<3[2:1]b,,1,2,3q8[4:1],,8-4[4:1]b,1,2,,3,2,1/5,,
5,4,6,7-4b[8:1],8-3[8:1],7,8,,5-1[4:1],5-1[8:1]b,,5,,,,6xpp7[4:3]*v3<6[4:3]b,,,,,,,,,,1b`D2,,
1x/2x,3,4,5x/6x,7,8x/1x,2,3,4x/5x,6,7-4[8:1],8-3[8:1]b,7,8,B7/B8/E8/D8,C,
4x/3x,2,1,8x/7x,6,5x/4x,3,2,1x/8x,7,6h[8:1],4h[8:1],2h[8:1],A8,C,,
8x/7x,6,5,4x/3x,2,1x/8x,7,6,5x/4x,3,2-5[8:1],1-6[8:1]b,2,1,B2/B1/E2/D2,C,
5x/6x,7,8,1x/2x,3,4x/5x,6,7,8x/1x,2,3h[8:1],5h[8:1],7h[8:1],1h[8:1],Cf,,
E8,B7,,B2,B3,,B7,B6,,
B3,E4,,
{32}
B7,B6,B5,,
{8}
E3,1b,D2,
