&title=がんばれ! 蜘蛛子さんのテーマ
&artist=「私」(CV:悠木碧)
&first=-0.9
&des=「作谱者」(CV:reflectW)
&lv_5=14
&inote_5=(190){1},
{4}3qq3[4:2],,,,
{4}4pp4[4:2]*p4[4:2],,,,
{4}1,7,3,5,
{4}2h[8:1],6h[8:1],4h[8:1],8h[8:1],
{16}1,2,3,4,5,6,7,8,1,2,3,4,5,6,7,8,
{1}1bw5[4:2]/5b,
{8}25,,6^4[8:1]/1-4[8:1],61,,,3v1[8:1]/8-4[8:1],38,
{8},,2v5[8:1]/5-8[8:1],25,,,4-1[8:1]/1-6[8:1],14,
{8},,5,2,7h[4:1],,3h[4:1],,
{16}1-5[8:1],,,,1^4[8:1]*^6[8:1],,,,1w5[8:1],,,,1,,,,
{8}37,,3-1[8:1]/8-4[8:1],38,,,5-7[8:1]/8-4[8:1],58,
{8},,3^1[8:1]/8q4[8:1],38,,,5^7[8:1]/8p4[8:1],58,
{8},,3,5,2h[4:1],,1^4[8:1],,
{16}1^6[8:1]/7,,,,51,,4,,3z7[8:1]/2-6[8:1],,,,,,,,
{16}48,,3,5,3,,6,4,6h[4:1],,,,1h[4:1],,,,
{16}6^1[8:1],,,,2,,3,,4w8[8:1],,35,,4,,,,
{16}51,,6,4,6,,3,5,3h[4:1],,,,8h[4:1],,,,
{16}3^8[8:1],,,,5,,6,,7p8[8:1]*p3[8:1],,,,,,,,
{16}2,2,8,,3,,6,6,4,,5,,3h[4:1],,,,
{16}6h[4:1],,,,2h[4:1],,,,5w1[8:1],,64,,5,,,,
{16}37,,6,4,5,,2,4,3,,7,,6,,5,,
{16}1-4[8:1]/4,,,,1-6[8:1]/6,,,,5-2[8:1]*-8[8:1]/1,,,,,,,,
{16}1-4[8:1],,,,6-1[8:1],,,,3-6[8:1],,,,8b,,,,
{16}8-5[8:1],,,,3,,,,4-1[8:1],,7b,,7b,,,,
{16}8qq8[4:1],,,,,,,,1pp1[4:1],,,,,,,,
{16}5^8[8:1],,,,1p6[16:5]*pp4[16:5],,,,,,,,,,,,
{16}3,4,2,,8,,73,,8-5[8:1],,8,,4-1[7:1],,4,,
{16}8qq3[16:5],,7,,6h[4:1],,,,,,,,18,,,,
{16}4b/6b,,7,,7,,7,,3b/5b,,2,,2,,2,,
{16}7b-5[8:1]/1b-5[8:1],,,,7b-3[8:1]/1b-3[8:1],,,,7b/1b,,,,,,,,
(124){32}1,2,3V15[4:2]/5,,,,,,,,,,,,,,,,,,,,,,,,,,,,,,
8,7,6/5pp2[4:2],,,,,,,,,,,,,,,,,,,,,,,,,,,,,,
3,4,5/6pp5[8:3],,,,,,,,,,,,,,5,4,3qq5[8:3],,,,,,,,,,,,,,
5pp5[8:3]*qq5[8:3],6,7,,,,,,,,,,,,,,,,,,,,,,,,,,,,,,
{32}7,6,5V71[4:2]/3,,,,,,,,,,,,,,,,,,,,,,,,,,,,,,
2,3,4p1[4:2]/5,,,,,,,,,,,,,,,,,,,,,,,,,,,,,6,
5,4/3V14[8:3],,,,,,,,,,,,,,4,5,6V85[8:3],,,,,,,,,,,,,,
4z8[8:3]*s8[8:3],3,2,
{16},,,,,,,,,,,,,,
(135){16}12,,,38,,,4-7[8:1]/7-4[8:1],,
(146){16}47,,,,,,,,87,,,16,,,2-5[8:1]/5-2[8:1],,
(157){16}25,,,,,,,,(168){16}18,,,27,,,3p6[8:1]/6v3[8:1],,
(179){16}36,,,,,,,,45,,,36,,,2V47[4:1]/7V52[4:1],,
27,,,,,,,,1h[8:1],,8,,1h[8:1],,7,,
1h[8:1],,6,,1h[8:1],,5,,
(190){16}2h[8:1],,8,,2h[8:1],,7,,
3h[8:1],,6,,3h[8:1],,5,,
4,6,4,6,3,5,3,5,2,8,2,8,1,7,1,7,
2,6,3,7,2,6,3,7,2,6,3,7,2,6,3,7,
2bs6[2:1]*-6[2:1],,,,,,,,,,,,,,,,
{16}47,,47,,6,5,6,,25,,25,,3,4,3,,
{16}56,,47,,3,8,3,,34,,25,,7b,8b,7b,8b,
{16}7b,,3,4,3,2,3,,15,,6,5,6,7,6,,
{32}1,2,3,4,5,6,7,8,1,2,3,4,5,6,7,8,1b/5b,,,,3b/7b,,,,1b/5b,,,,3b/7b,,,,
{16}2h[8:1],,8-4[8:1],,1,7,8b,,6h[8:1],,8-4[8:1],,1,7,8b,,
{16}7h[8:1],,1-5[8:1],,8,2,1b,,3h[8:1],,1-5[8:1],,8,2,1b,,
{16}3,,4-1[8:1],6,4,6,4,,7,,5-8[8:1],3,5,3,5,,
{32}1,2,3,4,5,6,7,8,15,4,3,2,1,8,7,6,5/1-5[8:1],2,3,4,5,6,7,8,1,,,,,,,,
{16}4,6,4,6,3,7,3,7,2,8,2,8,1b,,1b,,
5,3,5,3,6,2,6,2,7,1,7,1,8b,,8b,,
2,4,3,5,4,6,5,7,4,8,2,6,3,7,1,5,
2,6,3,7,4,8,3,3,8-5[12:2]*q5[12:2],8,2,2,,,,,
{16}2,8,3,6,4,7,5,8,3,7,2,6,4,5,3,7,
2,6,1,4,2,5,3,6,1,5,2,7,1,6,8,5,
2,6,3,7,1,8,2,6,3,7,4,1,3,8,2,5,
4,4,8,8,3,3,7,7,2,2,6,6,{32}1,2,3,4,5,6,7,8,
1v4[8:1]*v6[8:1],,,,,,,,1pp7[4:6]*qq3[4:6],,,,,,,,,,,,,,,,,,,,,,
