&title=Take Flight
&artist=Lindsey Stirling/Silas
&first=1.87
&des=M1ko
&lv_5=14
&des_5=M1ko
&inote_5=
(140){4},{8},,,,,,6xh[4:1]/4x>8-2-4[2:3],
,,6xh[4:1],,,{4}6xh[4:1],
{8},6xh[4:1],,,{4}6,7,
{8}3xh[4:1]/8-4<8[2:3],,,3xh[4:1],,,{4}3xh[4:1],
,3,2,1,
{8}7xh[4:1]/1x>5p1[2:3],,,7xh[4:1],,,{4}7xh[4:1],
{8},7xh[4:1],,,{2}7xh[4:1],
{8}2xh[4:1]/6p2<6[2:3],,,2xh[4:1],,,{4}2xh[4:1],
,2,3,4,
{8}B7/4x>8V24[4:7],B6,B5,B7,B6,B5,B7,B6,
B5,B7,B6,B5,B8,B7,{4}B6,
{8}E4/5xq1-7-5[4:7],E3,E2,E4,E3,E2,E4,E3,
E2,E4,E3,E2,E4,E3,{4}E2,
{8}E5/8x-4>8-2-4[2:3],E6,E7,E5,E6,E7,E5,E6,
E7,E5,E6,E7,E5,E6,{4}E7,
{1}8xh[4:3]/4xh[4:5],
{2}7bxh[4:3],3bxh[4:1],
{8}4,5,6,7,8h[4:5]/B1,E3,E4,B1,
E3,E4,B1,E3,E4,B1,E3,E4,
8,2,7,3,6h[4:5],B5,C,B1,
B5,C,B1,B5,C,B1,{4}B5,
{8}4x/8h[4:5],3x,2x,4x,3x,2x,4x,3x,
{4}2x,{8}1h[8:1],7h[8:1],{4}2h[4:1],6h[4:1],
{2}2h[8:3],1h[8:3]/7h[8:3],
{8}1h[8:1],2h[8:1],3h[8:1],4h[8:1],5h[8:1],6h[8:1],7h[8:1],8h[8:1],
{16}1bh[16:3],,,8h[16:3],,,{8}2,{16}2bh[16:3],,,8h[16:3],,,{8}3,
{16}3bh[16:3],,,8h[16:3],,,{8}4,{16}4h[8:3],,,7,,,{8}6,
{16}6bh[16:3],,,4h[16:3],,,{8}7,{16}7bh[16:3],,,4h[16:3],,,{8}8,
{16}8bh[16:3],,,4h[16:3],,,{8}1,{16}1h[8:3],,,3,,,{8}2,
{16}2bh[16:3],,,7h[16:3],,,{8}3,{16}3bh[16:3],,,8h[16:3],,,{8}4,
{16}4bh[16:3],,,1h[16:3],,,{8}5,{16}5h[8:3],,,8,,,{8}7,
{16}7bh[16:3],,,5h[16:3],,,{8}6,{16}6bh[16:3],,,4h[16:3],,,{8}5,
{16}5bh[16:3],,,3h[16:3],,,{8}4,{16}2h[8:1]/4h[8:1],,,1h[8:1]/5h[8:1],,,{8}6b/8b,
(140.4)7h[16:1]/5h[16:1],5h[16:1]/7h[16:1],7h[16:1]/5h[16:1],6h[16:1]/4h[16:1],6h[16:1]/4h[16:1],4h[16:1]/6h[16:1],3h[16:1]/5h[16:1],3h[16:1]/5h[16:1],
{16}2,4,2,4,1,8,1,8,5,7,5,7,1,8,1,8,
{8}1h[16:1]/7h[16:1],7h[16:1]/1h[16:1],7h[16:1]/1h[16:1],6h[16:1]/2h[16:1],2h[16:1]/6h[16:1],2h[16:1]/6h[16:1],3h[16:1]/5h[16:1],5h[16:1]/3h[16:1],
{16}4b,6,4,5,4b,7,4,5,3b,8,3,5,3b,1,3,5,
{8}2h[16:1]/6h[16:1],2h[16:1]/6h[16:1],6h[16:1]/2h[16:1],3h[16:1]/7h[16:1],7h[16:1]/3h[16:1],7h[16:1]/3h[16:1],8h[16:1]/4h[16:1],8h[16:1]/4h[16:1],
{16}5,5,1,1,3,3,7,7,1,1,5,5,3,3,7,7,
4bx,5,4,6,4,7,4,8,4bx,8,3,8,2,8,1,8,
2bx,8,3,8,4,8,5,8,5bx,8,4bx,7,3bx,6,2bx,5,
(70){4}Cf/1b<5[16:3],{16}1b/5,4,3,2,{32}1,5,1,5,2,6,2,6,3,7,3,7,4,8,4,8,
{4}1bh[8:1]/5b-7-1[4:1],A5f/1b-3-5b[4:1],{16}5,6,7,8,{32}1,1,3,3,7,7,5,5,
6,4,6,4,7,3,8,2,{4}1bs5>1[4:1],1b/5bh[4:1],{64}D1,A8,D8,A7,D7,A6,D6,A5,D5,A4,D4,A3,D3,A2,{32}D2,
{48}8x/1xh[16:3],7x,6x,5x,4x,3x,2x,8xh[24:7],,,,,1x,2x,3x,4x,5x,6x,7x,1xh[48:5],{96},,,,,,,,{32}8bx,,,7b/2b,,,{16}6b/3b,{32}1-5b[16:1],2,8/3,7,6/2,3,4/7,6,
{4}5/1b>5[16:3],{16}1b/5,6,7,8,{32}1,2,3,4,2,3,4,5,3,4,5,6,4,5,6,7,
{64}8b/4bs8[8:1],D1,A1,D2,A2,D3,A3,D4,A4,D5,A5,D6,D6,A6,D7,A7,{4}D8/4b>8[16:3],{16}4/8,7,6,5,{48}1b,2,3,5,6,7,2b,3,4,6,7,8,
{32}2,4,3,8,6,7,1,3,{4}4xh[4:1]/2bz6<2b[4:1],2b,{64}A2/6bxV48b[8:1],D3,A3,D4,A4,D5,A5,D6,A6,D7,A7,D8,A8,D1,A1,D2,
{4}2xh[16:3]/6bx-2-4b[8:1],6bx/2xh[16:3],{32}1b/5b,,,6b/2b,,,{16}7b/3b,{32}4/8,5x,6x,7x,8/4,1x,2x,3x,
(140){1}4h[1:2]/8-2-4-6-8[2:3],
{4},,,,8<4[8:1],
{16}8/4,3,2,1,{4}8V24[8:1],{16}4/8,5,6,7,
{4}8-6>5[8:1]*v5[8:1],8v3[8:1]*-2>3[8:1],8,{16}2,4,3,5,
{2}4h[8:9]/6x-8[8:1],1-5[8:1],
{8},6h[8:1],7h[8:1],8h[8:1],{4}1>5[4:1],5<1[4:1],
{1}1pp4[4:3]*qq6[4:3],
{16},,3,5,{8}3h[8:1],{16}6,4,{8}6h[8:1],4,3,2,
{1}8h[1:1]/1>6[4:3],
{4},7h[8:1]/5h[8:1],8h[8:1]/1h[8:1],4h[8:1]/2h[8:1],
{16}2,4,3,5,4,6,5,7,8,7,1,6,2,5,3,4,
3,4,2,5,3,4,1,6,4,5,2,7,5,6,3,8,
{4}6h[2:1]/5bqq1[4:3],,,7h[2:1],
,1-3-5[4:1],5-7-1[4:1],1q3[4:3],
{8}5bh[8:5],,,,,,,5,
5h[8:1],6,6h[8:1],7,7h[8:1],8,{16}8,1,2,3,
{8}7-5[8:1]/4-8[8:1],8/5,{4}4/7-3[8:1],7/1-5[8:1],8h[4:1]/1<3[4:3],
1,8h[8:1],7h[8:1],6h[8:1],
{8}2>5[8:1]/6<1[8:1],1/5,{4}6/2-6[8:1],2/8p4[8:1],1h[4:1]/8p6[8:5],
8,2h[8:1],3h[8:1],{16}4<4[1:1],5,4,5,
{4}4,{8}5,6,7,8,{4}8h[4:1],
{8},,6h[8:1],4h[8:1],{4}5h[2:1],4h[8:5],
{48}D6,A6,D7,A7,D8,A8,D1,A1,D2,A2,D3,A3,{8}D4,5xh[2:1],{48}D4,A3,D3,A2,D2,A1,D1,A8,D8,A7,D7,A6,{8}D6,4xh[8:1],
5xh[8:1],6xh[8:1],7xh[8:1],8xh[8:1],1xh[8:1],2xh[8:1],3xh[8:1],4xh[8:1],
{16}5>2[8:1],,,6,{8}5,7,{16}8<5[8:1],,,1,{8}8,2,
{16}3>8[8:1],,,4,{8}3,5,8/7,6/1,5/2,3/4,
{16}4-7[8:1],,,3,{8}4,2,{16}1-4[8:1],,,8,{8}1,7,
{16}6-1[8:1],,,5,{8}6,4,3/4,2/5,6/1,7/8,
{16}1-5[8:1],,,2,{8}1,3,{16}4-8[8:1],,,5,{8}4,6,
{16}7-3[8:1],,,8,{8}7,1,{16}2,2,3,3,4,4,5,5,
4,5h,3,5h,2,5h,1,5h,1,5h,1,6h,1,7h,1,8h,
1,7h,3,1h,5,7h,3,5h,3,7h,5,1h,3,7h,1,5h,
(70){4}Cf/1b-3-5b[16:3],{16}1b/5,6,7,8,{32}5,1,5,1,4,8,4,8,3,7,3,7,2,6,2,6,
{64}1bx-5b[16:1],D1,A8,D8,A7,D7,A6,D6,A5,D5,A4,D4,A3,D3,A2,D2,{4}5bx/1bxV75[16:3],{16}1/5,4,3,2,{32}1,1,2,2,3,3,4,4,
5x,6,5x,7,5x,8,5x,1,{4}5bxV71-3-5[4:1],{64}5bx/1h[4:1],,,,,,,,,,,,,,,,,D6,A6,D7,A7,D8,A8,D1,A1,D2,A2,D3,A3,D4,A4,D5,
5xh[4:1]/1xh[4:1],,,,,,,,,,,,,,,,,4x/8x,3x/7x,6xh[400:81]/2xh[400:81],,,,,,,,,,,,,(140),1x/5x,,8x/4x,,7x/3x,{16},{64},,,{192},{24}7xh[16:3],{48},,,,,,,3xh[400:41],,,,,(70)7,
8,1,4,5,6,1,2,3,5,6,7,{4}8bh[8:1]/4b>8b[16:3],{16}4/8,7,6,5,{48}1x,2,3,4,5,6,8x,1,2,3,4,5,
7x,8,1,2,3,4,6x,7,8,1,2,3,{4}8bx/4bxpp8b[16:3]*qq8b[16:3],4bx,{16}1h[16:1],7h[16:1],3h[16:1],5h[16:1],
{48}4,3,2,5,6,7,3,2,1,6,7,8,{32}2,1,3,8,4,7,5,6,{4}5b<5b[4:1]*-1b[16:1],5/Cf,
{64}1bx-5[8:1],D6/E6,A6,D7/E7,A7,D8/E8,A8,D1/E1,A1,D2/E2,A2,D3/E3,A3,D4/E4,A4,D5/E5,{4}A1f/5bxw1b[8:1],5b,{32}8bx/2bx,,,3b/7b,,,{16}6b/4b,
{64}5b/C,6,7,8,1,2,3,4,5/C,6,7,8,1,2,3,4,{4}5xh[4:1],4xh[4:1],{8}6xh[8:1],3xh[8:1],
{16}6,5,4,3,{48}6<3[2:3],5,4,3h[16:7],{4},,{24},{8}3h[16:1],
4h[16:1],5h[16:1],{32}3,4,5,6h[32:21],
E
