&title=Welcome to the Mosh Pit
&artist=lapix
&first=0.332
&des_1=Ra_V_S
&des_2=Ra_V_S
&des_3=Ra_V_S
&des_4=Ra_V_S
&des_5=Ra_V_S
&lv_5=14
&des_6=Ra_V_S
&des_7=Ra_V_S
&des=Ra_V_S
&inote_5=(172){4},{16},,,,,,,,4-8[8:1],5,3,6,
{4}4b,6h[2:1],{16}D1,D2,D3,D4,{8}D5,8xh[4:1]/7x-4[8:1],
,7,1,5x/2x-6[8:1],,2x/7x<5q1>3[2:1],8h[2:1],A7f,
,,,,B6,B5,B4,B3,
{16}2x/1x-4[8:1],8,{8}7-4[8:1],1,7x,{16},,,,5-1[8:1],4,6,3,
{4}5b,2h[2:1],{16}D2,D1,D8,D7,{8}D6,4xh[4:1]/3xv8[8:1],
,3,5,1x/6xq2[8:1],,6x/3xqq7[2:1],4h[2:1],A3f,
,,,,B2,B7,{16}4,5,4,5,
3x/6x-8[8:1],2,{8}1-5[8:1],6,1x,{16},,4,4,{4}5/3,
{8}4b/8b>4[4:1],6,4>8[4:1],6,8-4[8:1],6,,,5b/1b<5[4:1],
3,5<1[4:1],3,1-5[8:1],3,,,8b/4b<8[4:1],
2,8V64[4:1],2,4-8[8:1],2,,,1b/5b>1[4:1],
7,1V35[4:1],7,5w1[8:1],7,,,6/5,
6/4,6/3,2,3/4,5/3,3/6,7,
7/8,7/1,7/2,3,1/2,8/2,7/2,6,
{16}4,5,4,5,4,5,4,5,{32}3,4,5,6,7,8,1,2,3,4,5,6,7-5v4-2[2:1],8,1,2,
{4}7x/3-1v8-6b[8:3],,,Cf/E7/B7/B6/B2/B3/E3,
{32}8b/1b-6[8:1],2,3,4h[32:5],,,,,{16}1x,,,5,{4}5/7-4[8:1]*-3[8:1],B7/E7,
{32}1b/8b>3[8:1],7,6,5h[32:5],,,,,{16}8x,,,4,{4}4/2,{16}6,5,{8}7,
{32}8b/1bv6[8:1],2,3,4h[32:5],,,,,{16}1x,,,5,{4}7/5>2[8:1]*<8[8:1],5,
{8}6x-2[8:1],4-8[8:1],6<3[4:1],4,{4}6,E5f/B5/A5/D5/A4/B4,
{32}7b/8b,6,5,4h[32:5],,,,,{16}3-6[8:1],4,3,4,{4}3>8[8:1]*p7[8:1],3,
{32}2b/1b,3,4,5h[32:5],,,,,{16}6-1[8:1],5,6,5,{4}6>3[8:1]*-2[8:1],6,
8b/1bxV36[4:1],{8}6>1[4:1],7,{4}8-4[8:1],8,
{8}3h[8:1],4h[8:1],5h[8:1],6h[8:1],{32}D3,D4,D5,D6,D7,D8,D1,D2,{4}D3/A2/A3/E3f,
{8}6/5bh[8:1],7,{16}6x,4,8,2,5,3,7,1,6x,4,8,2,
{8}4bh[8:1],2,{16}3x,5,1,7,4,6,2,8,3x,5,1,7,
{8}5bh[8:1],7,{16}6x,5,8,1,4,3,8,1,6x,5,8,1,
{8}D6/B5,B1/D2,B7/E8/E7,E4/B3/E3,{16}5,5,1,1,{4}8x/2x,
6b/4xqq4[4:1],{8}7,6,{4}5xpp5[4:1],{8}3,2,
{16}1xh[16:3],,,8,{8}2,6h[4:1],{16},,5,6,{4}4/7,
{8}1/5,2,3/8,7,{16}6,5,6,5,7-5v4-2[8:5],4,8,3-1v8-6b[16:7],
{4}7x,,,A5/B5/Cf/B1/A1,
{8}6b/3bh[8:1],{16}8,2h[8:1],,7,{8}1h[8:1],{16}8,7,6,5,4/3,2,1,8,
{8}5h[8:1],{16}4,6h[8:1],,5,{8}7h[8:1],{16}1,2,3,4,5/6,7,8,1,
3h[8:1],,,4h[8:1]/2h[8:1],,,{8}5/1,{16}8,2,7,3,6,4,{8}5,
{16}8h[8:1]/7h[8:1],,,6h[8:1]/1h[8:1],,,{8}5/2,{16}1h[8:1]/2h[8:1],,,3h[8:1]/8h[8:1],,,{8}4/7,
{16}6/5q1[8:1],,,4,{8}5,3,{16}3/4p8[8:1],,,5,{8}4,6,
{16}7V51[4:1],,,5,{8}7,3,{16}2V48[4:1],,,4,{8}2,6,
{16}5x,6,7,4x,3,2,6x,7,8,3x,2,1,6x,5,7,3x,
4,2,7x,8,6,2x,1,3,{32}8xw4[8:1],7,6,5,4,3,2,1,{16}8bx,Cf,,,{1}6bh[4:7]/2b<8pp4-7[2:3],
,1h[4:3]/5V73-8[4:3],
{8}2x,{16}D4,D5,B3,B5,{8}E2/D2,{16}D8,D1,B7,B1,{4}E6/D6,
{8}3,3h[4:1],4,4h[4:1],2-5[8:1],2,{4}6,
{8}7,7h[4:1],8,8h[4:1],6>4[8:1],6,{4}2,
{8}1,1,{4}8/2h[4:1],{8}8,8,{4}1/7h[4:1],
{8}5x,{16}6,5,6,5,{8}7x,{16}3,4,3,4,{4}2x-6[8:1],
{1}6/2b>1b[2:5],
,5h[4:7],
1h[4:3],
{4}6/2h[4:1],6,{16}6/E1,E2,E3,E4,{8}6/E5,C,
7,2,7/3,4,7,3,7/2,1h[8:3],
{4}8,8,{8}8/1,2,8/3,4,
{16}8,8,2,7,1,1,7,2,8,8,2,7,{4}1b/8x-5[8:1],
{8}8-3[8:1],1,8w4[8:1],7,{4}8,8x/1x-4[8:1],
{8}1-6[8:1],8,1w5[8:1],2,{4}1,3x/7x<4[8:1],
{8}7>2[8:1],2,7p4[4:1],4,{4}7,2x-7[8:1],
{8}2-6[8:1],6-2[8:1],2<4[4:1],7,{2}7h[4:1],
{8}5/1,5/2,5/3,4,4/8,4/7,4/6,5,
4/3,4/3,5/2,5/2,6/1,6/1,{4}7x/8x,
{16}6,2,6,2,6,2,6,2,{32}5,4,3,2,1,8,7,6,5,4,3,2-4v5-7[32:17],1,8,7,6-8v1-3b[32:13],
{4},,,B7/A7/Cf/B3/A3,
{8}4b/6b-1[8:1],{16}5,3,6x,2,3,4,{8}5/8<5[8:1],{16}1,2,8x,4,3,2,
{8}6/1-5[8:1],{16}2,8,1x,6,7,8,{8}1/3v8[8:1],{16}2,4,3x,7,6,5,
{8}4/1h[8:1],{16}6,6h[8:1],,5,7,4,{8}3/8h[8:1],{16}2,2h[8:1],,6,3,5,
{8}2/4,{16}7,6/8,,2,{8}1/3,{16}4,5,3,6,2-6[8:1],7,1,8,
{8}2b,{16}7,7,5x-8[8:1],4,3,2,{8}5,{16}3,3,1x>4[8:1],8,7,6,
{8}1,{16}5,5,2xp6[8:1],3,4,5,{8}2,{16}3,3,5x-1[8:1],6,7,8,
{8}5,{16}6,2x,7x-4[8:1],8,6,1,{8}7,{16}3,5x,2x-5[8:1],1,3,8,
2,,,6h[8:1],,,{8}8/4,{16}E4,E8,E2,E6,{4}Cf,
{16}8b,7,6,5,8,7,6,5,1,2,3,4,1,2,3,4,
6,5,7,4,8,3,1,2,7,6,5,4,3,2,1,8,
2b,3,4,5,8,7,6,5,1,2,3,4,7,6,5,4,
1,5,2,6,3,7,4,8,5,6,7,8,1,2,3,4,
8b,7,6,5,8,1,2,3,1,8,7,6,1,2,3,4,
7,5,6,4,5,3,4,2,5,6,7,8,1,2,3,4,
1b,8,7,6,8,1,2,3,8,4,1,5,2,6,3,7,
B1,B7,B3,B5,B2,B8,B4,B6,{32}D1,D2,D3,D4,D5,D6,D7,D8,E1,E2,E3,E4,E5,E6,E7,E8,
{4}Cf,3xh[8:1]/4xh[8:1],5xh[8:1]/6xh[8:1],8x/7x-5v4-2[8:5],
3x-1v8-6b[8:3],,,7bx/3bx,
{32}2b/8b-4[8:1],3,4,5h[32:5],,,,,{16}8x,,,5,{4}5/6-3[8:1]*-1[8:1],E7/E6,
{32}7b/1b-5[8:1],6,5,4h[32:5],,,,,{16}1x,,,4,{8}4/3h[8:1],{16}1,2,8-4[8:1],3,7,4,
{1}8b<1b[4:11]`Cf,
E
