&title=生日祝福歌
&artist=格格
&first=-2.019
&lv_5=10
&des_5=m
&inote_5=
(120){4},{8},,,,,,,,,,,,,,,C,
,,,,{4}C,
{8},,,C,,,,,C,
,,,,C,,,,,{4}C,
{8},,,C,
,,,,{2}C,
{8},C,,,,,{4}C,
{8},,,C,,,,,C,
,,,,1x/8x<1[8:7],,,,,,,,,,,,5/4,
{16},,4x,3x,{8}2x,{16}5x,6x,{8}7x,3,
{4}6/2-5[8:1],2/8,{8}6/5,{16}4x,3x,{8}2x,6,
{4}8-3[8:1],8/7,{8}4/3,{16}5x,6x,{8}7x,1,
{4}1-4[8:1]/8-5[8:1],8/1,{16}1x,2x,8x,7x,2x,3x,7x,6x,
3x,4x,6x,5x,2x,3x,7x,6x,{2}4xh[2:1],
,B7/B8,
B1/B2,B7/B8,
B1/B2,B7/B8,
B1/B2,B7/B8,
B1/B2,B7/B8,
B1/B2,B7/B8,
B1/B2,B7/B8,
B1/B2,B7/B8,
B1/B2,{8}1/B8/B7,2,3,4,
{4}B8/B7/4-1[8:1],4,{8}8/B1/B2,7,6,5,
{4}B1/B2/5-8[8:1],5,{8}1/B8/B7,2,3,4,
{4}4/B8/B7,{8}4,3,2/B6/B5,2,8,7,
{4}6/4-1[8:1],4,{8}4,6,4,7,
{4}8/4,{8}4,6,3,5,3,4,
{4}2/5,4>5[2:1],{8},,,,,,,4,
{16}5/4x,,,8/7,,,{8}1/2-4[8:1],
,,,6,{16}8/7,,,2/1,,,{8}5-8[8:1]/4-1[8:1],
,,,,{4}7-4[8:1]/8-4[8:1],8/7,
2-5[8:1]/1-5[8:1],1/2,C,E8/B7/B8/E1/B1/E2/B2/C/E7/B6/E3/B3,
{2}E8/B7/B8/E1/B1/E2/B2/C/E7/B6/E3/B3,{4}4/3>7[16:3],3/5,
5<2[16:3],5/3,C,E8/B7/B6/E6/C/E2/B2/B3/E4,
{2}E8/B7/B6/E6/C/E2/B2/B3/E4,{4}1/2>5[8:1],2/8,
7<4[8:1],7/1,4bx/3bx,2bx/5bx,
1bx/6bx,8bx/7bx,{2}2-5[8:1],
7-4[8:1],2<5[4:1],
{4},,4/5pp5[4:1],5,
3qq3[4:1],3,B5/E5/B4,B6/B5/E5/B4/B3/C,
{2}E7/B6/B5/E5/B4/B3/E3/E1/C/B8/B1,{4}8/2-5[8:1],2/7,
1/7-4[8:1],7/2,C,B8/C/B6/B4/B2,
{2}B8/B7/B6/B5/B4/B3/B2/B1/C,{4}5/4,{8}3,4,
{4}4/3,{8}6,5,{4}E8/B7/B6/E6/C/E2/B2/B3/E4,E1/B8/B7/B1/B2/B3/E4/B6/E6,
E8/B7/B6/E6/B8/B1/B2/C,E8/B7/C/E5/E2/B2,5V71[4:1],1V35[4:1],
5<1[4:1],1>5[4:1],5<1[4:1],1>5[4:1],
5<1[4:1],1>5[4:1],{2}5<4<4[1:1],
,,C,
C,
C,C,
{1}B7/B6/C/B2/B3,
E
&lv_7=?
&des_7=m
&inote_7=
(120){4},{8},,,,,,,8x/3x/6x/Ch[8:79]/1x>1>2>3<4<5<6<7>8>1>2>3<4<5<6<7>8>1>1[8:77],
{1},,,,,,,,,,{4},,,{8},1x/3x/5bx/4bx/6x/8x,
{16},,2x,3x,{8}5b/4b/8/6/2x,{16}7x,6x,{8}1/3/7x/4b-8b[8:1]/5b-1b[8:1],1x/8x,
{4}4bx/5bx/3x-1[8:1]/6x-8[8:1]/1x-5b[8:1]/8x-4b[8:1],6x/3x/8bx/1bx,{8}3/6/5bx/4bx/7x/2x,{16}4b,5b,{8}4b/3x/6x/1-3[8:1]/8-6[8:1],5b/4b,
{4}5b/4b/8x/1x/3qq1[8:1]/6pp8[8:1],5b/4b/3x/6x,{8}8/5b/4b/3/1/6,{16}4b,5b,{8}4b/8/2/1/7,5b/4b,
{4}1/3/8/5b/4b/6,3/2/7/6/5b/4b,{16}6x/4bx/2x,7x/5bx/3x,6x/4bx/2x,5bx/3x/7x,4bx/2x/6x,3x/7x/5bx,2x/6x/4bx,7x/5bx/3x,
6x/4bx/2x,7x/5bx/3x,6x/4bx/2x,5bx/3x/7x,4bx/2x/6x,3x/7x/5bx,2x/6x/4bx,7x/5bx/3x,{2}2xh[2:1]/6xh[2:1]/4bxh[2:17],
5bxh[1:8],A8/E8/D8/A7/A2/E2/D2/A1,
A8/E8/D8/A7/A2/E2/D2/A1,A8/E8/D8/A7/A2/E2/D2/A1,
A8/E8/D8/A7/A2/E2/D2/A1,A8/E8/D8/A7/A2/E2/D2/A1,
A8/E8/D8/A7/A2/E2/D2/A1,A8/E8/D8/A7/A2/E2/D2/A1,
A8/E8/D8/A7/A2/E2/D2/A1,A8/E8/D8/A7/A2/E2/D2/A1,
A8/E8/D8/A7/A2/E2/D2/A1,A8/E8/D8/A7/A2/E2/D2/A1,
A7/B8/B7/A8/D8/A1/B1/B2/A2/D2/E8fh[1:2]/E2fh[1:2],B7/B6/E7/B2/B3/E3,
E6/B5/B4/B6/B3/E4,E6/B5/B4/E4/E5/D6/A5/D4/A4,
B7/C/B2/B3/B6,{8}4bx/5bx/1x>3[8:1]/8x<6[8:1],1x/5bx/4bx/8x,{4}1x/8x/4bx-1b[8:1]/5bx-8b[8:1],
5bx/4bx,B8/B1/E1/E6/D6/A6/A5/D4/A4/E4/A3/A8/A1,{8}3x/6x/1bx-4b[8:1]/8bx-5b[8:1],3/6/8bx/1bx,8bx/1bx/2q4b[4:1]/7p5b[4:1],8h[8:3]/1h[8:3],
{2}3xh[4:1]/6xh[4:1],{8}5bh[2:1]/4bh[2:1]/6v3[8:1],6,6/2<7[8:1],2,
{4}2,{8}5b/3h[4:3]/1h[4:3]/6h[4:3]/8h[4:3]/4b-2b[8:1],4b,4b/5b-7b[8:1],5b,{4}5b,
{64}7bx/2bx/E3/E7,B6/B3,B5/B4,E5,,,,,,,,,,,,,{4}5bx/4bx/A1/D2/E2/A2/A8/E8/D8/A7,{8}5bxh[1:1]/4bxh[2:1]/1-3[8:1],1,1/8-6[8:1],8,
{4}8,8/1/4bxqq4b[4:1],{2}4bxpp4b[4:1],
{4},A5/E5/D5/A4/A7/E8/D8/A8/A1/E2/D2/A2,E5h[4:3]`1h[4:11],3h[2:5],
6h[4:9],8h[1:2],{16}5bx/4bx,,,7bx,,,{8}2bx,
,,,2bx/7bx,{16}5bx/4bx,,,2bx/7bx,{48},,,,,,{24}2bx/7bx,3bx,4bx,
5bx,6bx,7bx,8bx,1bx,2bx,{4}3bx,4bx/5bx/3x/2x/6x/7x,6bx/5bx/4x/3x/7x/8x,
4bx/5bx/3x/2x/6x/7x,3bx/4bx/6x/5x/2x/1x,6x/7x/5bxh[2:1]/4bxh[2:1]/2x<7[8:1]/3xp6[8:1],6x>3[8:1]/7xp2[8:1],
,,5bx/4bx/6x/7x/3x/2x,3bx/4bx/5x/6x/2x/1x,
5bx/4bx/6x/7x/3x/2x,6bx/5bx/3x/4x/7x/8x,3xh[2:1]/2xh[2:1]/6xh[2:1]/7xh[2:1]/4bx-8b[8:1]/5bx-1b[8:1],4bx>1b[8:1]/5bx<8b[8:1],
{2}5bx/4bx,{4}6bx/5bx/8x/7x/2x/1x,4bx/3bx/2x/1x/7x/8x,
6bx/5bx/8x/7x/2x/1x,4bx/3bx/2x/1x/7x/8x,6bx/5bx/7x/8x/4x/3x,5bx/4bx/6x/7x/3x/2x,
4bx/3bx/5x/6x/2x/1x,3bx/2bx/1x/4x/5x/8x,5bxh[2:3]/4bxh[2:3]/2x-4v5-7[8:3],2x,
8x<4pp6[4:1],8x,{2}2x<6[4:1]*v4[8:1],
{4},,4bx/5bx/3x/2x/6x/7x,6bx/5bx/4x/3x/7x/8x,
4bx/5bx/3x/2x/6x/7x,3bx/4bx/6x/5x/2x/1x,5bxh[2:1]/4bxh[2:1]/2x-8[8:1]/7x-1[8:1],2x-4[8:1]/7x-5[8:1],
{2}7x/2x,{4}5bx/4bx/6x/7x/3x/2x,3bx/4bx/5x/6x/2x/1x,
5bx/4bx/6x/7x/3x/2x,6bx/5bx/3x/4x/7x/8x,5bx/3xh[2:1]/2xh[2:1]/6xh[2:1]/7xh[2:1]/4bx-1b[8:1],4bx/5bx-8b[8:1],
5bx/1bx,8bx/1bx,7x/6x/2x/3x/8bx-4b[8:1]/1bx-5b[8:1],1bx/8bx/7x/2x/6x/3x,
6x/3x/2x/7x/4bx-8b[8:1]/5bx-1b[8:1],5bx/4bx/7x/3x/6x/2x-6b[8:1],2bx/8x/7x/4x/3x/1bx-5b[8:1],1bx/3x/2x/7x/6x/8bx-4b[8:1],
6x/5x/2x/1x/8bxw4b[8:1]`7bx,7x/6x/2x/1x`8bx,7x/1x/8x/2x>7b[4:1],8x/1x/2x/7x<2b[4:1],
1x/7x/8x/2x>7b[4:1],8x/1x/2x/7x<2b[4:1],1x/7x/8x/2x>7b[4:1],8x/1x/2x/7x<2b[4:1],
1x/7x/8x/2x>7b[4:1],8x/1x/2x/7x<7<6>5>4>3>2<1<8<7<7b[2:5],{2}2xh[2:7]/1xh[2:7]/8xh[2:7]/7xh[2:7],
,,,,,,{1}Cf/D5f/B5f/A5f/D6f/E6f/E5f/B4f/B3f/E4f/A3f/D3f/E2f/B2f/E3f/A4f/A2f/D1f/D8f/D7f/E8f/B8f/B1f/E1f/B7f/A6f/A1f/A8f/A7f/E7f/B6f/D2f/D4f,
E
