&title=燐寸と緞帳
&artist=Juka_Box feat. 綜花
&first=0
&des=바다로 돌아가고 싶어
&lv_5=14
&inote_5=(152)
{1},,
{16}2bx,4,3,5,4-1[8:1],6,5,7,4^3-5-7[8:2],,,2x,,,2x,,
{16}2,8,3,8,4,8,5,8,{32}D6,A5,D5,A4,D4,A3,D3,A2,D8,A7,D7,A6,D6,A5,D5,A4,
{16}1x,3,2,3,1-5[8:1],4,2,4,1,,,6x,,6x,4x,,
{16}7,6,5,4,1-6[8:1],2,3,4,1v2-4[8:2],,,,,,,,
{16}7bx,5,6,4,5-8[8:1],3,4,2,5^6-4-2[8:2],,,7x,,,7x,,
{16}7,1,6,1,5,1,4,1,{32}D4,A4,D5,A5,D6,A6,D7,A7,D2,A2,D3,A3,D4,A4,D5,A5,
{16}8x,6h[8:1],,7,5h[8:1],,6h[8:1],,1x,3h[8:1],,2,4h[8:1],,3h[8:1],,
{16}7,5,6,2,4,3,8,1,7h[8:2],,,,{24}3xqq5b[8:10],8x/4x,1x/5x,2xqq6[8:9]/6x,,,
{16},,,,,,,,,,,,,,,,
{16},,,,,,,,8h[8:4],,,,,,,,
{16}6>2[8:2],,,,8,,7,,6x,,,,,,35,,
{16},3,4,,2<6[8:2],,5,,6x,,,,,,,,
{16}7-4^5-1[8:3]/5,,,,5,,3,,2x,,,,,,8^5[8:1]/2,,
{16},5,8,,3qq8[8:4],,2,4,3x,,,,,,,,
{16}5-7p3[16:5],,,,8,,1,,2x,,,,,,47,,
{16},7,5,,8-2p5[16:5],,4,,3x,,,,,,,,
{16}1-6-2-4[8:3]/4,,,,4,,5,,7x,,,,6,,6,4,
{16}5,,2,,2,8,3qq4b[16:5],7,4x,,5x,,6x,,7x,,
{16}8^6[8:1],,5-8[8:1],,8^3[8:1],,5,,,,6,,45,,34,,
{16}2,,1,,28,,3/7pp5b[8:3],,,,5x,,4x,,3x,,
{16}2-6[8:1],,4-2[8:1],,2V86[8:2],,4,,,,4,,3,,25,,
{16}6,8,7,1,8,2>7[16:5],1h[8:3],,,,,,,,,,
{32}8x/7x,1x/6xV47-1[16:7],2x/5x,,{16},,3,,3,,,,2,,2,,,,
{32}2x/8x,3x/7x,4xz8^1V73[16:9]/6x,5x,{16},,6,,6,,,,5,,5s1b[16:3],,,,
{16}4x/5x-3>6-4[8:10],,,,,,,,,,,,,,,,
{16},,,,,,,,,,2,,2,5,3,6,
{16}4b,,75,,86,,15,,24,,13,,48,,75,,
{24}6,4,6,{16}4,7,5,6,3,4,
{32}2,1,8,7,6,5,3h[384:1],2h[384:1],1h[384:1],8h[384:1],7h[384:1],6h[384:1],5h[384:1],,,,
{16}1b-4[8:1],,2,4,1,,6-1[8:1],,7,5,6,,{24}2,3,4,8,7,6,
{16}3q7[8:1],,2,,1^4[8:1],,8,,7-1-6[8:2],,6,,5,,,,
{16}2h[16:3],,,4,3,5,4,6,1h[16:3],,,4,2-6[8:1],5,3,6,
{16}2^8[8:1],,,7,2,,7,,6-1[8:1],2,4,3,6,,,,
{16}5-2[8:1],,8,8,5,,7,,1-3[8:1]/6-4[8:1],,8,,16,,,,
{16}5-1[8:1],,4,4,5,,3,,2V46[16:3],7,1,6,2,,,,
{16}7h[8:1],,5,5,7,,6,,8h[8:1],,4,4,8^3[8:1],,5,,
{16}8V61b[8:2]*-5-2[8:2],,,,,,,,,,1x/3x,,2x/8x,,1x/7x,,
{16}2^7[8:1]/6,,35,,4,,4,,3^6[8:1],,3,,8,,1,,
{16}2-6-3[8:2]/8,,7-1[8:1]/3,,6,,7,,,,7x/4x,,3x/6x,,2x/5x,,
{16}1/6pp4[8:3],,78,,1,,1,,2,,3,,4,,5,5,
{16}4,6,3,1,2,7,8,6,1<4b[8:2],5,2,4,,,,,
{16}8xqq5[8:4],,,3,,,3,,,,2,,2q7^6q3b[8:4],,,,
{16}7hx[8:4],,,,,,,,,,4x/6x,,3x/5x,,2x/4x,,
{16}1,5,2,5,3,6,4,6,5,7,6,7,8,7,1b-3[8:1],,
{16}3x-8[8:1],,8x-4[8:1],,4x-7[8:1],,7x,,5x^8b[8:1],,5x^2b[8:1],,5x,,5x,,
(152){32}8x,,8bx,7x,6x,5x,,,7bx,6x,5x,4x,,,8bx,7x,6x,5x,,,
(114){32}1bx,8x,7x,6x,5x,4x,3x,2x,1x,
(76){32}7bx,6x,5x,4x,3x,2x,
(152)
{16}1b/8b,,7,4,6x,,6,5,7,5,8x,,8,2,7,3,
{16}6^5-3[12:1],,,4x/6x,,2,2,,{24}4,5,6,1,2,3,5,6,7,2,3,4,
{16}56,,7,4,8x,,8,1,7,2,6x,,6,4,7,3,
{16}8-6[12:1],,,2x/8x,,3-1[12:1]*-5[12:1],3,,3xq7[8:1],,,,,,,,
{16}8b/1b,,2,5,3x,,3,4,2,4,1x,,1,7,2,6,
{16}3^4-6[12:1],,,5x/3x,,7,7,,{24}5,4,3,8,7,6,4,3,2,7,6,5,
{16}43,,2,5,1x,,1,8,2,7,3x,,3,5,2,6,
{16}1^4[12:1],,,7x/1x,,6-1[12:1]*p2[12:1],6,,6x,,,,3,8,2,8,
{16}1-7v5[8:2],,7,,6x,,6,,6-4v1[8:2],,4,,3x,,3,,
{16}3-8-3[8:2],,8,,7x,,7,,7^4^7[8:2],,4,,3x,,3,,
{16}1v6[8:1]*^2-4[8:1],,,,1x,,,,2-5[8:1],4,3,5,2x,,8,,
{16}8-4[8:1],3,7,4,8x,,1,,1,6,8,7,1,8,2,7,
{16}3b^8[8:1],,,4,3,,6,,6^3[8:1],,78,,6,,1,,
{16}1^6[8:1],,,2,1,,4,,3v2[8:1]/5v8[8:1],,26,,,,,,
{16}1b/7b,,,,,,,,{16}3bx/4bx,,{24}5,4,6,{16}5,6,4,4,
{16}7bx,,{24}2,1,2,{16}8,3,7,7,{16}4bx,,{24}7,6,5,D8,D7,D6,D5,D4,D3,
{16}8bx,,{24}7,1,7,{16}1,6,2,5,{16}8bx,,{24}6,1,6,{16}1,5,2,4,
{16}8bx,,{24}5,1,5,{16}1,4,2,3,{12}8bx,4x,2x,1x-4b[12:1],5x<4[12:30],7xpp2[12:19],
{16}1bx,,,,,,,,,,,,,,,,
{16},,,,,,,,,,,,,,,,
{16},,,,,,,,,,,,,,,,
{32}6-1^8-3[8:8],5,{16}4h[16:31],,,,,,,,,,,,,,,
{16},,,,,,,,,,,,,,,,
{16}3^5v4^6[8:6],,,,,,,,,,,,,,,,
{16}8h[8:4],,A7,,B6,,C,,B3,,A2,,E5,,E1,,
{16}6h[8:3],,,,,,5pp6[32:9]*^2[32:8],,,,,,,,,,
{16}3h[8:3],,,,,,4h[8:2],,,,1,,1,7,2,6,
{16}3,5,4b,,7,5,7,,8b/3b,,7,5,7,,8b/2b,,
{16}3x,3x,5,,6x/2x,,7x,7x,1,6,5x,,8,2,7,3,
{16}6,4,5b,,2,4,3,6,1b/6b,,2,4,3,7,{96}7bv6-4>8b[16:12],1b-5-2[16:9],,,,,,,,,,,
{16},,,,,,,,,,,,,,,,
{16}2xv3v4v5[16:9],,,,8h[8:4],,,,,,,,,,,,
{16}7,6,7,5,6,3,4,3,5h[32:1],1h[32:1],4h[32:1],2h[32:1],3-7[8:1],,,,
{16}2-5[8:1]/3,,,8,2,,8,,6^3[8:1]/1,,,7,6,,7,,
{16}1-6[8:1]/6,,,4,1,,4,,8V25[16:3],6,1,5,8,,,,
{16}7-2[8:1],,5,5,7,,4,,{24}1^4[8:1],8,7,6,5,4,1,,,,,,
{16}8-3[8:1],,5,5,8,,4,,{24}2,1,8,7,6,5,2,1,8,7,6,5,
{16}8h[8:1],,3,5,4,,56,,7h[8:1],,1,6,2-7[8:1],,35,,
{16}2V41b[8:2]/4v5-7[8:2],,,,,,,,,,8x/6x,,7x/1x,,8x/2x,,
{16}7^2[8:1]/3,,64,,5,,5,,6^3[8:1],,6,,1,,8,,
{16}7-3-6[8:2]/1,,2-8[8:1]/6,,3,,2,,,,2x/5x,,6x/3x,,7x/4x,,
{16}8/3qq5[8:3],,21,,8,,8,,7,,6,,5,,4,4,
{16}5,3,6,8,7,2,1,3,8>5b[8:2],4,7,5,,,,,
{16}1xpp6[8:4],,,7,,,7,,,,8,,8q5^4q1b[8:4],,,,
{16}4hx[8:4],,,,,,,,,,7x/3x,,6x/2x,,1x/5x,,
{16}4,2,6,3,1,5,8,2,6,1,5,7,4,8,6b^1[8:1],,
{16}2x^5[8:1],,6xq2[8:1],,2xq6[8:1],,6x,,4xV28b[32:5],,4xV68b[32:5],,4xq5[8:6],,4x,,
{16},,,,,,,,,,,,,,{32}4/7s3b[8:15],3/6,2z6[16:29]/5,,
{1},,,E
