&title=混沌ブギ
&artist=jon-YAKITORY, 初音ミク
&first=0.72
&des_5=ホシノちゃん
&lv_5=13+
&des=ホシノちゃん
&inote_5=(190)
{4}6h[8:1]/3<5[8:1],6h[8:1],6h[8:1]/3<5[8:1],6h[8:1],6h[8:1]/2>5[8:1],6h[8:1],6h[8:1]/2>5[8:1],6h[8:1],
{8}8<5[8:1],,4w8[8:1],,,,2,8<5[8:1],,4w8[8:1],,,,2,4/6,,
{8}3h[8:1]/6>4[8:1],,3h[8:1],,2-5b[8:1]/7-4b[8:1],,,,3h[8:1]/7<4[8:1],,3qq8[8:3],,7<4[8:1],,,,
{8}1>4[8:1],,7p3[8:1],,2q6[8:1],,5w1[8:1],,,,3h[4:1]/7,,5h[4:1],,
{32}B6f,C,B2,A2,,,,,
{8}3>8[8:1]/4p7[8:1],,3/4,,6<1[8:1]/5q2[8:1],,5/6,,3-5[8:1],,3/6h[8:1],,1>4[8:1]/8<5[8:1],,1/8,,
{8}3-8[8:1]/6-1[8:1],,3/6,,2h[8:1]/7h[8:1],,6,5-1[8:1]/4-8[8:1],,4/5,,2h[8:1]/7h[8:1],,6,3h[8:1]/6h[8:1],,
{8}3/4-8b[8:1],,2/4,,1h[8:1]/7h[8:1],,2/1-4[8:1],,2qq4[8:3],,2x-4v5-7b[8:3],,,,,,
{8}8<5[8:1],,2q6[8:1]/8,,7<4[8:1],7,3qq6pp3b[4:3],,E5hf[4:3],,,,,,,,
{4}1b-5[8:1],1/3,1-5[8:1]/2-5[8:1],1/2,8-4[8:1],8/6,8-4[8:1]/7-4[8:1],8/7,
{4}1-5[8:1],1/3,1-5[8:1]/2-5[8:1],1/2,8-4[8:1],8/6,
{16}8-4[8:1]/7,,,1,8,,2,,
{4}6-8[8:1]/3,6/3-1[8:1],6-8[8:1]/3,6/4-1[8:1],4/5-8[8:1],4-1[8:1]/5,4/5-8[8:1],4>1[8:1]/5,5<8[8:1]/4,4>1[8:1]/5,5<8[8:1]/4,4/5,
{8}1-6[8:1],2,3/1,4,8w4[8:1],8,,,
{4}4xv1[8:1]/6xv1[8:1],4V68[4:1]/6V42[4:1],,,1>5[4:1]/5<1[4:1],1v7[4:1]/5v3[4:1],,,
{4}2-6[8:1],4-8[8:1],1-5[8:1],7<4[4:1],
{8}3,2,1,8h[8:3],,,,,
{4}A8/E1/B8,E2/B2/A2/E7/B6/A6,B4/E5/E4/A5/A3/A4/C,2x/6x,8<4[4:1]/4>8[4:1],8v2[4:1]/4v6[4:1],,,
{8}1/7,,3/8,,4/7V52b[4:3],4h[8:9]/7,,,,,,,,,,,
{8}7-5[8:1],7,3,3,8-4[8:1],8,2,2,7-5[8:1],7,1,1,8w4[8:1],,8,,
{8}2-4[8:1],1,8,7,2-5[8:1],1,8,7,1pp1[4:1],,1<1b[8:3],,,,,,
{8}7-5[8:1],8-4[8:1],7,8,1-5[8:1],2-4[8:1],1,2,7<5[8:1],7>1[8:1],7-3[8:1],,,,2,,
{8}1x>4[4:1],,4x-8[4:1],,8x<5[4:1],,5xw1[8:1],,,,E3h[2:1],A5,A6,A7,A8,,
{4}4bx>8[2:1]/8bx,E7,E7,E7,1/5<1[2:1],E3,E3,E3,
{4}4h[1:1]/7-5[8:1],7,1-3[8:1],1,8-5[8:1],8-3[4:1]*z4[4:1],8,,
{4}D6h[4:7]/3-5[8:1],3,2-5[8:1],2,1-4[8:1],1,8-3[8:1],8,
{8}E2h[1:1]/5x,5x,6,6,7,7,8,8,
{16}7s3[2:1],,,,7bx,,,,8bx,8bx,8bx,8bx,8bx,8bx,,,
{8}1p5[8:1]/7v4[8:1],,1/7,,7v4[8:1],1p5[8:1],7,1,8xw4[8:1],,8,,2>5[8:1],1v6[8:1],2,1,
{8}2<7[8:1],,2/5v8[8:1]*v2[8:1],,5,,1,1<6[8:1],,1/4v7[8:1]*v1[8:1],,4,,8,2b/8b,,
{8}3>1[8:1]/4p8[8:1],,3/4,,7-3b[8:1],2-6b[8:1],7,2,8<5[8:1]*p4[8:1],,8pp3[8:3],,,,,,
{8}6-4[8:1],,2-6[8:1]/6,,8-4[8:1]/2-4[8:1],,8>6[8:3]/2,,8/B2/B3/E3f,,,8,1w5b[8:1],,1/Cf,,
{8}2v5[8:1]/8q4[8:1],,2/8,,2v5[8:1],8q4[8:1],2,8,1xw5[8:1],,1,,4x-2[8:1],5x-7[8:1],4,5,
{8}2x-6[8:1],,2v1[8:1]/7v8[8:1],,Cf,,2x/7x,3v4[8:1]/6v5[8:1],,3v1[8:1]/6v8[8:1],,Cf,,2/7,4h[8:1]/5h[8:1],,
{8}2-6[8:1],,2/4,,1>4[8:1],8<5[8:1],1,8,3-7[8:1],,3/8-6v5-3b[8:3],,,,,,
{8}1-6[8:1],,1/2-5[8:1],,5qq1[8:3]/2,6,,8qq4[8:3],,,2,,3w7b[8:1],,Cf,,
{8}E6h[4:7]/B5h[4:7]/B6h[4:7]/1,1,2h[16:1],2,1,1,2h[16:1],2,1,1,2h[16:1],2,1,1,2h[16:1],2,
{16}3/5x,,3,,3,4,3,,3/5,,3,,3,4,3,,6/4,,6,,6-3[8:1],5,6,,6/4h[2:1],,,,,,1,,
{8}8b-5b[8:1],,1/8b-3b[8:1],,8b-5b[8:1]/6,,8b-3b[8:1]/2,1,8b-5b[8:1]/6,,8b-4b[8:1]/2,,8b/6,7,1b-5b[8:1]/3,2,1b-6b[8:1]/7,,1b-4b[8:1]/3,,1b-6b[8:1]/7,,1b-4b[8:1]/3,2,1b-6b[8:1]/7,,1bw5b[8:1]/3,,1b,,,,
{32}7h[1:4]/E3,B3,B4,,,,,,,,,,,,,,,,,,,,,,,,,,,,,,E1,B8,B7,,,,,,,,,,,,,,,,,,,,,,,,,,,,,,A1,E2,E3,,,,,,,,,,,,,,,,,,,,,,,,,,,,,,B8,C,B4,,,,,,,,,,,,,,,,,,,,,,,,,,,,,,
{16}4b,,3,,2/5,,3,4,3,,3/4,,2h[8:1]/5h[16:1],,,,
{16}5,,6,,7/4,,6,5,6,,6/5,,7h[8:1]/4h[16:1],,,,
{8}A3h[4:3]/D4h[4:3]/A4h[4:3],,2,,1,,8-6[8:1]*-5[8:1],,8b>6[8:3],,,,1xw5b[8:1],,1b/Cf,,
{8}2b>4[8:1],1,8<6[8:1],1,5-1[8:1],4-2[8:1],5,4,7<5[8:1],8,1>3[8:1],8,4-8[8:1],5-7[8:1],4,5,
{8}1-5[8:1],,1/5w1[8:1],,Cf/B7h[384:1]/B3h[384:1],,3/7,8-4b[8:1],,8/4w8b[8:1],,Cf/B6h[384:1]/B2h[384:1],,2/6,2h[8:1]/6h[8:1],,
{8}1qq1[4:1]*-3[8:1],,1,,4>1[8:1],5<8[8:1],4,5,2-6[8:1],,2-5[8:1]/8-5[8:1],,2-4[8:1]/8-6[8:1],,2/8,,
{8}3-5[8:1],,7-3[8:1]/3,,1-5[8:1]/7-5[8:1],,1<3[8:3]/7,,1/B7/B6/E7f,,,1,8w4b[8:1],,8/Cf,,
{8}7b<5[8:1],8,1>3[8:1],8,4-8[8:1],5-7[8:1],4,5,2>4[8:1],1,8<6[8:1],1,5-1[8:1],4-2[8:1],5,4,
{8}8-4[8:1],,8/4w8[8:1],,Cf/B2h[384:1]/B6h[384:1],,6/2,1-5b[8:1],,1/5w1b[8:1],,Cf/B3h[384:1]/B7h[384:1],,7/3,7h[8:1]/3h[8:1],,
{8}2-4[8:1],1,6-4[8:1],7,1>4[8:1],8,7<4[8:1],8,1v6[8:1]*v4[8:1],,1-4>2b[4:1]*-6<8b[4:1],,,,,,
{8}8-3[8:1],,8/7-4[8:1],,4pp8[8:3]/7,3,,1pp5[8:3],,,7,,6w2b[8:1],,Cf,,
{8}8b<4[4:1],,4V68[4:1],,8V64[4:1],,4pp8[4:3],,3,,2,2h[8:1],,1,1h[8:1],,
{8}2>5[4:1],,5<8[4:1],,8>4[4:1],,4q7[4:3],,8,,7,6x,,5xh[4:1],,,
{8}8>3[8:1],,8<5[8:1],,8-4[8:1],,8qq2[4:3],,3,,4,4h[8:1],,5,5h[8:1],,
{8}4/6,7,4/6,3,4/6h[4:1],,3,3h[2:1],,4,,5h[8:27],,6,6-2b[8:1],,
{48}6bx,B6,Cf,B2,A2h[12:17],,,,,,,,,,,,,,,,,,,,,,,,,,,,,,,,,,,,,,,,,,,,,,,,,,,,,,,,,,,,,,,,,,,,,,,,,,,,,,,,6-2b[8:1],,,,,,,,,,,,6bx,B6,Cf,B2,A2h[3:2],,,,,,,,,,,,,,,,,,,,,,,,,,,,,,,,,,,,,,,,,,,,
{4}6h[8:1],5/6h[8:1],6h[8:1],5/6h[8:1],
{8}3/5,2,3/4,2,3-8[8:1]/4,5,3/6,7,5/6,7,6/4,7p4[4:1],8,1h[4:1],,,
{8}2b-5[8:1],,2b/8b-3[8:1],,8b/6b-1[8:1],,6b/4b-8[8:1],,4bx/7bx-3[8:1],7x,1bx-5[8:1]/7bx,1x,1x/8x,7x,6xh[8:1]/3xh[8:1],,
{4}A8/D8/A7/D7/A6/D6/A5/E8/E7f/E6/B8/B7/B6/B5/C,,,,,,,,
{4}2h[8:1],2h[8:1],2h[8:1],2h[8:1],3h[8:1],3h[8:1],3h[8:1]/5h[8:1],
{8}3/5,3/5,
{4}A8/D8/A7/D7/A6/D6/A5/E8/E7f/E6/B8/B7/B6/B5/C,,,,,,,,
{4}1h[8:1],1h[8:1],2h[8:1],2h[8:1],3h[8:1]/5h[8:1],3h[8:1]/5h[8:1],4h[8:1]/5h[8:1],
{8}4w8[16:1],4,
