&title=Girlish Lover
&artist=自らを演出する乙女の会/TVアニメ「俺の彼女と幼なじみが修羅場すぎる」OPテーマ
&first=1.03
&des=Ragna
&wholebpm=165
&demo_seek=60.2
&demo_len=25.5
&des_5=Ragna
&lv_5=12
&inote_5=(165){8},,,,
36,5,4,63,4,5,36,27,
18,,27,,4-1[8:1]/5-8[8:1],,45,,
2h[2:1],,7,6,5-8[8:1],,1b,2h[8:5],
,8,7,6,5-8[8:1],,1b,,
2h[2:1],,4,,7h[2:1],,5,,
1h[2:1],,,5,5-1[8:1],,4,,
2h[2:1],,,,4h[4:1],,5h[4:1],,
6h[4:1],,7h[4:1],,8h[4:1],,1,,
26,3,5,4,37,5,4,2b/7b,
,,,,,,,,
3-8[8:1],4,4,4,3-8[8:1],5,5,5,
3-8[8:1],6,6,6,3-8[8:1],7,6,5,
6-1[8:1],5,5,5,6-1[8:1],4,4,4,
6-1[8:1],3,2,,1b/8b,2b/7b,3b/6b,,
45,,73,73,,16,,2h[8:3]/8h[8:3],
,,,,34,,75,,
18,,2qq5[4:3]/7pp4[4:3],27,,,,,
,,,,,3,7,1h[8:5],
,,,,6h[4:1],,8,,
7h[4:1]/1h[4:1],,,28,,,35,,
74,,16,,38,,45,4b/5b,
,75,6,24,3,45,36,,
28,,16,16,,57,,3h[8:3]/5h[8:3],
,,,,28,,75,,
24,,1pp5[4:3]/8qq4[4:3],18,,,,,
,,,,,6,2,8h[8:5],
,,,,3h[4:1],,7,,
2h[4:1]/5h[4:1],,,16,,,73,,
4h[4:1]/5h[4:1],,,,26,,18,1b-6[8:1]/8b-3[8:1],
,,,4b-8[8:1]/5b-1[8:1],,,,,
7pp4[2:1],,,,,,,3q5[2:1],
,,,,,,,7v5[8:1],
1v3[8:1],,,8v6[8:1],2v4[8:1],,,7h[4:1],
,3,,25,2-5[8:1]/5-8[8:1],,,,
4qq8[2:1],,,,,,,6q1[2:1],
,,,,,,,,
2^7[8:1]/7,,4,,2^7[8:1]/6,,4,,
6^1[8:1]/1,,5,,6^1[8:1]/2,,5,,
4-8[8:1]/8,,7-5[8:1],,1-3[8:1],,4,,
4-6[8:1]/5-3[8:1],,4-7[8:1]/5-2[8:1],,4-8[8:1]/5-1[8:1],,45,,
2b/7b,,,,,,,,
5pp5[4:1],,3,2,1^4[8:1],,4b,5pp5[4:1],
,4,3,2,1^4[8:1],,4b,,
5h[2:1],,7,,4h[2:1],,2,,
6V47[4:1],,,1,1-5[8:1],,8,,
6h[2:1],,,,1>5[3:1],,4<8[3:1],,
7>3[3:1],,2^5[4:1],,5,,8,,
74,3,8,1,25,8,1,27,
,,3,6,1,8,2b/7b,,
3q5[4:1],,6,7,8-4[8:1],,4b,3q5[4:1],
,5,6,7,8-4[8:1],,4b,,
2h[2:1],,3,,7h[2:1],,6,,
1V73[4:1],,,5,5-1[8:1],,4,,
2h[2:1],,,,4<8[3:1],,7>3[3:1],,
2>6[3:1],,5^8[4:1],,8,,3,,
13,8,4,5,86,5,4,2b/7b,
,,,,,,,,
1-5[8:1],8,8,8,1-5[8:1],7,7,7,
1-5[8:1],6,6,6,1,8,72,,
{2}3bqq5[4:7]/6bpp4[4:7],,,,,E
