&title=Ten Thousand Stars
&artist=CircusP
&first=0.03
&des=Nanamor1
&lv_5=13+
&inote_5=(128)
{1},,
4>5[4:6],
,
4>5[4:6]/7<7<5[4:6],
,
3<3[4:6],
4<7[2:1],
{4}6b>2[8:3]*>6b[4:3],,,,5>5[2:1],,,,
{4}2-6[8:1],,7-3[8:1],,
1-5[8:1],,8-4[8:1],,
1-6[8:1]*-4[8:1],,5-1[8:1],5V31[4:1]/1V75[4:1],
5V74[4:1],,1-5[8:1],,
{4}7-3[8:1],,2-6[8:1],,
8-4[8:1],,1-5[8:1],,
8>3[8:1]*<5[8:1],,4-8[8:1],4V68[4:1]/8V24[4:1],
4V26[4:1],,8-4[8:1],,
{4}5x-1[8:1],1-7-2-6-3[2:1],,,
{4}1x-5[8:1],5-3-6-2-7[2:1],,,
5-7[8:1],2-4[8:1],7-1[8:1],4-8[8:1],
4-2[8:1]/7-5[8:1],4-8[8:1],1-3[8:1]/4-6[8:1],,
{4}1-5[8:1],5-3-6[4:1],6-2-7[4:1],,
{4}5-1[8:1],1-7-2[4:1],2-6-3[4:1],,
1>4[8:1],6<1[8:1],3<6[8:1],8-4[8:1],
8<5[8:1]/3>8[8:1],8pp5[8:3],,,
{4}5x-7[8:1],5-3[8:1],5-1[8:1],,
{48}E3,B3,B4,,,,,,,,,,B1,C,B5,,,,,,,,,,E3,B3,B4,,,,,,,,,,B1,C,B5,,,,,,,,,,
{4}4-2[8:1],4-6[8:1],4-8[8:1],,{48}E7,E6,E5,,,,,,,,,,E1,E2,E3,,,,,,,,,,E7,E6,E5,,,,,,,,,,E1,E2,E3,,,,,,,,,,
{4}5-7[8:1],5-3[8:1],5-1[8:1],,
{48}E3,B3,B4,,,,,,,,,,B1,C,B5,,,,,,,,,,E3,B3,B4,,,,,,,,,,B1,C,B5,,,,,,,,,,
{4}1-5[8:1],,8-5[8:1]/4-1[8:1],,1>4[8:1]/5<8[8:1],,4-1[8:1],8-5b[8:1],
,,4>1[8:1],7<4[8:1],
8-4[8:1],7xv1[8:1],7<4[8:1]/4>1[8:1],4z8[4:1],
,2x-6[8:1],7<4[8:1],8>3[8:1],
5<8[8:1],4v5[8:1],4>1[8:1]/1<6[8:1],1s5[4:1],
,7<4[8:1],3>8[8:1],5-1[8:1],
2-4[8:1],2<7[8:1]/7x<4[8:1],7pp8[4:1],,
5>1[4:1],1<5[4:1],5>1[4:1],1-5[8:1],4-8[8:1],4-7[8:1]*-1[8:1],4w8[8:1],,
{4}1>5[8:1],5V31[8:1]/1<6[8:1],1p8[16:3],,
5<1[8:1],1V75[8:1]/5>2[8:1],5p4[16:3],,
1>5[8:1],5V31[8:1]/1<6[8:1],1p8[16:3],,
5<1[8:1],1V75[8:1]/5p1[8:1],5>7[16:3],,
{4}4>8[8:1],8V24[8:1]/4<7[8:1],4q5[16:3],,
8<4[8:1],4V68[8:1]/8>3[8:1],8q1[16:3],,
4>8[8:1],8V24[8:1]/4<7[8:1],4q5[16:3],,
8<4[8:1],4V68[8:1]/8q4[8:1],8V24-6b[4:1],,
{1},
{4}5v8[4:1],,1v4[4:1],,
{48}E6,,,,,,,,,,,,E8,,,,,,,,,,,,E6,,,,,,,,,,,,E8,,,,,,,,,,,,
{4}4-1[4:1],,8-5[4:1],,{48}E5,,,,,,,,,,,,E3,,,,,,,,,,,,E5,,,,,,,,,,,,E3,,,,,,,,,,,,
{4}5<8[4:1],,1>4[4:1],,
{48}E6,,,,,,,,,,,,E8,,,,,,,,,,,,E6,,,,,,,,,,,,E8,,,,,,,,,,,,
{4}4>1[8:1]*<7[8:1],,8pp2[8:1]*qq6[8:1],,1v4[8:1]/7v4[8:1],,5-8[8:1],1-4b[8:1],
{32}E8f,B7,B6,E6,,,,,{4},5<8[8:1],2>5[8:1],
1-5[8:1],2-8[8:1],2>5[8:1]/5<8[8:1],5s1[4:1],
,7-3[8:1],2>5[8:1],1<6[8:1],
4-1[8:1],5-3[8:1],5<8[8:1]/8>3[8:1],8z4[4:1],
,2>5[8:1],6<1[8:1],4-8[8:1],
7-5[8:1],7>2[8:1]/2>5[8:1],2qq1[4:1],4<4[2:1],
,4<8[4:1],8>4[4:1],4-8[8:1],1-5[8:1],1-6[8:1]*-4[8:1],1w5b[8:1],A1/B1/Cf/B5/A5,
{4}4>3-1<8[8:1],8V24[8:1]/4V68[8:1],4q5[16:3],8>2[16:1],
8x<7-5>4[8:1],4V68[8:1]/8V24[8:1],8q1[16:3],4<6[16:1],
4x>3-1<8[8:1],8V24[8:1]/4V68[8:1],4q5[16:3],8>2[16:1],
8x<7-5>4[8:1],4q8[8:1]/8q4[8:1],8>7b[4:1],,
{4}1>2-4<5[8:1],5V31[8:1]/1V75[8:1],1p8[16:3],5>3[16:1],
5x<6-8>1[8:1],1V75[8:1]/5V31[8:1],5p4[16:3],1<7[16:1],
1x>2-4<5[8:1],5V31[8:1]/1V75[8:1],1p8[16:3],5>3[16:1],
5x<6-8>1[8:1],1V75[8:1]/5V31[8:1],5>6b[4:1],,
{8}3V14[16:3],,7V58[16:3],,7s3b[16:3],,,,
{8}7V58[16:3],,3V14[16:3],,3s7b[16:3],,,,
{8}4-1-3[16:3],,8-5-7[16:3],,8z4b[16:3],,,,
{8}8-5-7[16:3],,4-1-3[16:3],,4z8b[16:3],,,,
4>7[16:3],,7V15[16:3],,5s1b[16:3]*-7[16:1],,,,
8<3[16:3],,3V51[16:3],,1s5b[16:3]*-3[16:1],,,,
4>6[4:1],,5-1[8:1],,5V31-7b[4:1],,,,
6V82-4[4:1],,5-1[8:1],,5<3b[4:1],,,,
4b,
&inote_6=
