&title=You Make My Life 1UP
&artist=ななひら
&first=0
&des=Mr_HaoZi
&lv_5=13+
&inote_5=(180)
{1},
{8}2h[4:1],,,6,,1,,5,
{8},2,,3,,,,,
{8}7h[4:1],,,2,7,3,6,4,
{8}5,,,1,,8,,,
{8},,2,,2,,2,,
{8}2,,3,,8,,1,6,
{8},4,4,,,,,6,
{6}1b,2,3,7b,6,5,
{16}4,5,4,5,4,5,4,5,4,5,4,5,,,,,
{16}3,6,3,6,3,6,3,6,3,6,3,6,,,,,
{16}2,7,2,7,,,,1,8,1,8,,,,,,
{4}1b-4[8:1],5b-1[4:1],1b-7[8:1]*-3[8:1],,
{8}6h[8:3],,,3-8[8:1],,3/7-5[8:1],,4-2[8:1]/7,
{8},4/6-3[8:1],,16,,,,,
{8}7h[8:3],,,1-3[8:1],8,1-5[8:1],7,1^4[8:1],
{8}6,,,8b,,,,,
{8}3h[8:3],,,7-5[8:1],,7/8-4[8:1],,1-5[8:1]/8,
{8},1/2-4[8:1],,2b/7b,,,,,
{8}1b/8b,,,,2b/4b,7b/5b,,4b/5b,
{8},,,2b/7b,,,,,
{8}34,34,8b,{16}7,4,6,3,5,2,{16}8b,,3,,
{8}56,56,1b,{16}2,5,3,6,4,7,{16}1b,,6,,
{8}45,45,8b,{16}2,7,3,6,4,5,{16}1b,,5,,
{8},2,1,8,7,6,{24}2,1,2,1,2,1,
{8}3,6,3,7-5[8:1],2,7,,,
{8}2^5[8:1]/7,,2,8^5[8:1],,8,,1,
{8},7-4[8:1],1,7,2^4[8:1],8,2,,
{8}6-1[8:1],5-2[8:1],6,5,,8-4[8:1],,8w4[4:1],
{4},,,2-6[8:1],
{4}2h[8:3],{8},6,,,8-4[8:1],,
{4}8h[8:3],{8},4,{4},1^4[8:1],
{8}1h[8:3],,,4pp8[4:1],4,,,,
{8}2,8,2,7,3-6[8:1],3,3,,
{8}7-4[8:1],8-3[8:1],7,8,,7w3[8:1],,7,
{8},2-4[8:1],8-5[8:1],2-5[8:1],8-6[8:1],2,8,,
{8}18,3-7[8:1]/6-2[8:1],27,36,,1pp4[2:1]/8qq5[2:1],,18,
{8},,,,,1>6[4:1],1,1/6p1[4:1],
{8},7,7,7,,8qq5[2:1],8,8,
{4}2,2,2,{8}4,4b/7b,
{8},3b/6b,,2b/5b,,1b/4b,{16}2,5,3>6[1:2],,
{1},
{1},
{4},,,6<3[1:2],
{1}6,
{4},5h[4:1],,,
{4}5,5,5,5,
{4}4,4,4,4,
{4}4^1[4:2]/5,5,5,5,
{4}4/5^8[4:2],4,4,4,
{8}4,4,4,4,5,5,5,5,
{16}6,3,6,3,2,7,2,7,1,2,3,4,8,7,6,5,
{4}4/8b,3,1b,6,
{4}1b-4[8:1],5b-1[4:1],1b-3[8:1]*-7[8:1],,
{4},2/3-8[8:1],3/4-7[8:1],4/5-2[8:1],
{4}5/6-1[8:1],67,1q8[8:1]/7pp4[4:1],,
{4},2-4[8:1]/8,2-6[8:1]/8,28,
{4}1/7-5[8:1],1/7-3[8:1],1^4[8:1]/7,1,
{4},1^4[8:1],5^8[8:1],2^5[8:1],
{4}6^1[8:1],2^5[8:1],7^2[8:1],3^6[8:1],
{4},1bq8[4:1],6bp5[4:1],,
{4},1bq8[4:1],6bp5[4:1],,
{4},2-5[8:1],2/8-4[8:1],38,
{4}1b-4[8:1],1b/5b-1[4:1],1b-3[8:1]*-7[8:1],,
{4},2-5[8:1]/3,1-5[8:1]/2,8-4[8:1]/1,
{4}7-4[8:1]/8,6<3[4:1]/7,6,,
{4},2-7[8:1]/3,1-4[8:1]/2,1/8-5[8:1],
{4}7-2[8:1]/8,6-3[8:1]/7,5pp8[2:1]/6,45,
{8},2,2,,,,,,
{6}1b/6b,2b/7b,3b/8b,4b/7b,3b/6b,2b/5b,
{8}1-4[8:1],,,6-1[8:1],,6,
{8},1-3[8:1]/8-6[8:1],,1pp4[4:1]/8qq5[4:1],,18,,,,,
{8}8-5[8:1],,,2-4[8:1],7,2-6[8:1],7-1[8:1],2-4[8:1],
{8}7,2,,8b,2,12,{16}4,7,4,7,
{8}4-7[8:1],,,2-4[8:1],,2-6[8:1]/7,,2/7-4[8:1],
{8},2-6[8:1]/7-1[8:1],,2b/7b,,4,5,5,
{4}4b,{32}8,7,6,5,{8},5b/6b,2b/4b,,7b/5b,
{8},,,{32}1b/8b,27,36,45,,,,,1b,8,7,6,4b,3,2,1,,,,,
{24}8,7,6,5,,,{8}1b,,{24}8,7,6,2,3,4,{24}8b,7,6,5,,,
{24}1,2,3,4,5,6,7b,8,18,27,36,45,4,3,2,1,48,37,2/6b,15,,,,,
{32}8,7,6,5,4,3,2,1,3b,4,5,,{8},7-4[8:1],,7b,3>6[4:3],
{10}5,5,5,5,4,4,3,3,2,2,
{4}34,8b,56,1b,
{8}34,34,8b,,{16}5,6,5,6,{4}1b,
{24}6,5,4,3,2,1,{32}4b/8,5,6,7,8,1,2,3,4,5,6,7,8,1,2,3,4/8b,,,,,,,,
{8}1-5[8:1],7,1,8-3[8:1],3-6[8:1],8,,,
{1}1b-5[1:4],,,,7-3[1:1],,
{8}1,,7,7,,3,3,,
{6}6,6,6,1,1,{24}1,2,3,4,
{8},1-5[8:1],7,1,8-4[8:1],2,8,,
{8}2-5[8:1],1-6[8:1],2,1,,1-4[8:1]b,,1,
{8},1-5[8:1],5-3[8:1],1,7,7,7,,
{8}1-4[8:1],7-5[8:1],1,7,,1-3[8:1]/8qq4[4:2],,18,
{8},,,,,2-4[4:1],2,2,,
{8}1-5[4:1],1,1,,8-4[4:1],8,8,
{8},,6,,6,,1,1b,
{8},2b,,3b,,4b,,{16}6pp1[1:2],5,
{1}7,,
{4},,,3,
{2}3h[2:1],7h[2:1],
{1}1w5[2:1],
{4}4^1[2:1]/5,5,5,5,
{4}5^8[2:1]/4,4,4,4,
{4}4^1[2:1]/5,6,7,8,
{4}5^8[2:1]/4,3,2,1,
{8}5,5,6,6,4,4,3,3,
{16}7,2,7,2,7,2,7,2,8,7,6,5,4,3,2,1,
{4}8/4b,5,3b,2,
{4}8b-5[4:1],5b-1[4:1],1b-7[4:1]*-3[4:1],,
{4},1-7[8:1]/2-6[8:1],1/2V46[8:1],2/8p4[8:1],
{4}1-5[8:1]/8,1/7-3[8:1],8-4[8:1]/7-5[8:1],78,
{4}3b/6b,7-1[8:1]/2-5[8:1],2-6[8:1]/7,2/8-5[8:1],
{4}8-2[8:1]/7-3[8:1],8-4[8:1]/7-5[8:1],7V53[8:1]/8,78,
{4}2b/7b,1^3[8:1]/6^8[8:1],16,3^1[8:1]/8^6[8:1],
{4}38,2-6[8:1]/8-6[8:1],2V46[8:1]/8,28,
{4},1q8[4:1],6p5[4:1],,
{4},1q8[4:1],7pp5[4:1],,
{4},2-6[8:1]/7-1[8:1],2V46[8:1]/7,1-7[8:1]/2-6[8:1],
{4}1/2V46[8:1],1-7[8:1]/2-6[8:1],1-5[8:1]/2-4[8:1],12,
{4},2-8[8:1]/7-3[8:1],2/7V53[8:1],7-3[8:1]/8-2[8:1],
{4}7V53[8:1]/8,7-3[8:1]/8-2[8:1],7-5[8:1]/8-4[8:1],78,
{4},1-7[8:1]/2-6[8:1],12,7-3[8:1]/8-2[8:1],
{8}78,,1-4[8:1]/8-5[8:1],,18,,1>5[8:1],5<1[8:1],
{4}1w5[4:1],,,5,
{6}1b,2b,3b,7b,6b,5b,
{1}4b-8[2:1],
{16}1,,8,,2,,7,3,7,,4,,6,,4,,
{16}8,,1,,7,,2,6,2,,5,,3,,5,,
{16}4,,5,,4,,5,4,5,,4,,5,,4,,
{16}4,5,4,5,4,5,4,5,4,5,4,5,,,,,
{16}3,6,3,6,3,6,3,6,3,6,3,6,,,,,
{16}2,7,2,7,,,,1,8,1,8,,,,,,
{4}1b-4[8:1],5b-1[4:1],1b-7[8:1]*-3[8:1],,
{4},1^4[8:1]/5,{32}5b,6,7,8,,,,,{4}8^5[8:1]/4,
{32}4b,3,2,1,,,,,{4}1b/8b,{32}1b/8b,27,36,45,,,,,{4}1b/8b,
{4},1/2^5[8:1],{32}1b,8,7,6,,,,,{4}7^4[8:1]/8,{32}8b,1,2,3,,,,,
{4}1b/5b,{32}1h/5h,26,37,48,,,,,4h/8h,37,26,15,,,,,
{4},1>5[4:1],5<1[4:1],1>5[4:1],
{4}5<1[4:1],1>5[4:1],5<5[2:1],1,
{4},1bq8[4:1],6bpp5[4:1],,
{4},1bq8[4:1],7bpp5[4:1],,
{4},1-7[8:1]/2-6[8:1],1-6[8:1]/2V46[8:1],1-7[8:1]/2-6[8:1],
{4}1-5[8:1]/2-4[8:1],1-7[8:1]/2-6[8:1],1-5[8:1]/2-4[8:1],12,
{4},7-3[8:1]/8-2[8:1],8-3[8:1]/7V53[8:1],7-3[8:1]/8-2[8:1],
{4}7-5[8:1]/8-4[8:1],7-3[8:1]/8-2[8:1],8-4[8:1]/7-5[8:1],78,
{4},1-3[8:1]/8-4[8:1],1-5[8:1]/8-6[8:1],1-3[8:1]/8-4[8:1],
{4}1-5[8:1]/8-6[8:1],1-3[8:1]/8-4[8:1],18,{8}1pp4[2:1]/8qq5[2:1],18,
{4},,,4,
{6}8b,7b,6b,2b,3b,4b,
{6}7,7,7,{16}1^4[8:1],,,,8,7,6,5,
{6}2,2,2,{16}8^5[8:1],,,,1,2,3,4,
{6}7,7,7,{16}1^4[8:1],,,,8,7,6,5,
{6}2,2,2,{16}8^5[8:1],,,,1,2,3,,
{16}4,5,4,5,4,5,4,5,4,5,4,5,,,,,
{16}3,6,3,6,3,6,3,6,3,6,3,6,,,,,
{4}2,8b,{8}3,3,{4}6h[8:3],
{8}4,4,,8b,,,,,
{8}34,34,8b,{16}7,4,6,3,5,2,{16}8b,,3,,
{8}56,56,1b,{16}2,5,3,6,4,7,{16}1b,,6,,
{8}45,45,8b,{16}2,7,3,6,4,5,{16}1b,,5,,
{8},2,1,8,7,6,{24}2,1,2,1,,,
{16}4,5,4,5,4,5,4,5,4,5,4,5,,,,,
{16}3,6,3,6,3,6,3,6,3,6,3,6,,,,,
{16}2,7,2,7,,,,1,8,1,8,,,,,,
{8}2,,1b,,2b,5,6,7,
E
