&title=Chariot
&artist=USAO
&first=0
&des=Chariot reveresd
&lv_5=12+
&lv_6=13
&inote_5=(128)
{1},
{16}
3h[8:1],,4,3,,6h[8:1],,,
6h[8:1],,5,6,,2h[8:1],,,
2h[8:1],,4,3,,7h[8:1],,,
7h[8:1],,5,6,,1h[8:1],,7,
2,4,3,6,5,7,1,8,
{32}
1,2,3,4,5,6,7,8,1s5[8:3],2,3,4,5,6,7,8,
{16}
1,,,,,,,,
8-4[8:1],,7,,18,,,,
1b-4[8:1]/5b,,,,1v3[8:1]/5v7[8:1],,6,,,,,,
6-1[8:1],,6,,2-5[8:1],,3,,7-2[8:1],,8,,3-6[8:1],,4,,7,,7,,
8b-4[8:1]/3b,,,,8/3-8[8:1]*-7[8:1],,2,,,,,,
1,,28,,3h[8:1]/7,,6,6,5h[8:1],,1,1,2h[8:1],,7,7,8h[8:1],,4,,2b/6b,,,,
{24}
3,,3,5,,5,4>7[4:1],,,,,,7,,,,,,
6,,6,8,,8,7,,7,1,,1,6^3[8:1],,,,,,2,,,,,,
{16}
3b/7b,,,,
1,8,1,8h[16:7],,5,,2q5[16:7],,,3,3h[16:7],,,,,,,,,
1w5[8:1],,,,1,,,,
{16}
2,4,3,5,4,6,2,4,3,5,4,6,5,7,1,8,3,4,2,6,5,7,1,8,
4^1[8:1],,7^4[8:1],,4,,7,,
2bV47[4:1],,,,7V52[4:1],,,,2bV48[4:1],,,,8V61[4:1],,,,1b-4[8:1],,,,7b,,,,
1-5[8:1]/3,,28,,1b,,,,
7,5,6,4,5,3,7,5,6,4,5,3,4,2,8,1,6,5,7,3,4,2,8,1,
8-4[8:1],,1-3[12:1],,8,,1,,
7b^4[8:1],,8b,,7b/4bp2[4:1],,,,2q6[8:1],,,,,,,,
1,,24,24,,1h[8:1],,8,
{32}
2,3,4,5,6,7,8,1,2,3,4,5,6,7,8,1,
{16}
2p8[4:1]/6,,7,,6h[4:1],,,,,,17,,2h[12:1]/6h[12:1],,2h[12:1]/6h[12:1],,
3/5qq1[16:5],,46,,7h[4:1],,,,,,
8,,17,,26,,3q7[8:1]/5p1[8:1],,26,,35,,,,26,,35,,2h[12:1]/6h[12:1],,2h[12:1]/6h[12:1],,17,17,,35,35,35,,,2-6[12:1],4,,,8,,7b,,
56,,7,,4V25[4:1]/5,,3,,5-1[8:1],,6,,7h[8:1],,,,
87,,6,,1]/8V61[4:1],,2,,1-5[8:1],,2,,3h[8:1],,,,
56,,56,,78,,78,,
{32}
1,8,7,6,5,4,3,2,1-5[8:1],8,7,6,5pp6[4:1]*qq4[4:1],4,3,2,
1b,,,,,,,,,,,,,,,,
{16}
8w4[8:1],,,,8,,,,
{16}
26,26,,35,3/5V73[4:1],,26,,3V17[6:1]/5,,,,4w8[8:1],,,,,,,,
3/5V31[6:1],,46,,5/7-1[12:1]*-5[12:1],,,,,,,,
37,37,,46,4V26[4:1]/6,,37,,4/6-1[8:1],,,,5>1[4:1],,,,1<5[4:1],,,,5V31[4:1],,,,1v6[8:1],,,,4b,,,,
73,73,,64,6/4V26[4:1],,73,,6V82[6:1]/4,,,,5w1[8:1],,,,,,,,
6/4<8[6:1],,53,,4/2^8[8:1]*^4[8:1],,,,,,,,
26,26,,35,35,,17,,8v3[8:1],1,,7,8,,6,,5,,34,,17,,26,26,,35,35,,4^7[8:1]*q8[8:1],,,,
4p2[32:21]*>5[64:39],,,,,,,,,,,,,,,,
3q1[4:1],,,,,,,,7q5[4:1],,,,,,,,2p4[4:1],,,,,,,,6p8[4:1],,,,,,,,
2,,3,,4,,6,5,7,5,6h[8:1],,1b,,,,
24,,3,5h[8:1],,4,6,5,7,,6,4h[8:1],,5,3,4,2,,
2,8h[8:1],,1,7,8,6,,7,1h[8:1],,8,2,1,
3,3,7,7,2,2,8,8,
{32}
1,2,3,4,1,8,7,6,1-5[12:1],2,3,4,1,8,7,6,
{16}
1b/5s1[4:1],,,,,,,,8w4[8:1],,,,8,,,,
{16}
1-5[8:1]/7,,,,1-6[8:1]/5-2[8:1],,7,,1^4[8:1]/5,,,,1/5V71[8:1],,6,,2V46[8:1],,3,,6,,7,,
{32}
7h[16:2]/8,1,2,,,,
7h[16:2]/1,2,3,,,,
7/2,3,4,,
{16}
8-4[8:1],,8,,8-3[8:1]/4-7[8:1],,2,,4/8V64[8:1],,,,48,,2,,
34,,6,6,5,5,4,4,3,3,7,7,4-8[8:1],,,,34,,,,
{24}
3,,3,1,,1,4,,4,6,,6,8,,8,5,,5,2,,2,1,,1,8,,8,7,,7,3,,3,4,,4,5,,5,6,,6,
8b-4[12:1],,,1b/7b,,,8b,,,,,,
2,,2,4,,4,5,,5,7,,7,5p4[4:1],,,,,,6,,,,,,7^2[8:1],,,,,,4b,,,,,,
{16}
3h[16:1],1h[16:1],3h[16:1],1h[16:1],2h[16:1],8h[16:1],2h[16:1],8h[16:1],1h[16:1],7h[16:1],1h[16:1],7h[16:1],8h[16:1],6h[16:1],8h[16:1],6h[16:1],1h[16:1],7h[16:1],1h[16:1],7h[16:1],2h[16:1],6h[16:1],2h[16:1],6h[16:1],
3h[8:1],,8,5,7h[8:1],,2,6,
3h[16:1],5h[16:1],2h[16:1],6h[16:1],3h[16:1],5h[16:1],2h[16:1],6h[16:1],
3h[16:1],5h[16:1],1h[16:1],7h[16:1],2h[16:1],6h[16:1],3h[16:1],5h[16:1],
4,4,3,5,4,4,3,5,4,4,4,,17,,35,,2b/6b,,,,
{32}
3,,5,4,5,,3,,6,,4,5,4,,6,,3,,5,4,5,,3,,
{16}
6h[16:4],,1,,
{24}
2,,3,4,,2,1-5[12:1],,,8,,,7b/1b,,,,,,
{16}
6b,,6b,,5b/7b,,4,5,3q5[4:1],6,3,,8,,8,,
7b,,,,6b,,,,5b/1^6[8:1]*^4[8:1],,,,1b,,,,
{16}
1b/7b,,35,,2-5[8:1],6,1,5v8[8:1],2,6,,7,,,6,,
5b/8q4[12:1],,7,8,,6,6,,3b/5b,,2^5[8:1],1,,1,2,,
8b,,46,,7-5[12:1],3,8,4-8[8:1],7,3,,2,,,1,,
2b/4b,,35,,46,,57,57,,4h[16:5]/6,,,
{24}
3q1[8:1],2,1,8,7,6,
{16}
5b,,7b,,6b/3bv6[8:1],,,,3-8[8:1],7,,7,3,,6,,
1bp5[12:1]/5b,,2,1,,3,3,,4b/6b,,7^4[8:1],8,,8,7,,
1b,,53,,2-4[12:1],6,1,5-1[8:1],2,6,,7,,,8,,
7b/5b,,64,,53,,72,72,,18,18,,
{48}
1b/8b,2b/7b,3b/6b,4b/5b,,,,,,,,,
{16}
2,4,3,3,6,5,7,7,1,8,2,2,6,5,7,7,3,4,2,2,8-4[8:1],1,7,7,8,,
5,5,3,6,4,7,5,6,2,8,3,4,2,4,3,5,1,8,5,7,1,6,2,4,3,1,5,7,8,6,3bp7[8:1]*^8[8:1],4,4,,3b,,,,
{32}
2b,,2,,6b,,6,,1b,2,3,,5,6,7,,3b,,3,,7,,7,,2b,3,4,,6,7,8,,4b,,4,,8,,8,,3b,4,5,,7,8,1,,
{16}
3bq7[8:1]*^6[8:1],3,3,3,3b,,,,
4b,4,5b,5,6b,6,7,7,
{32}
8,1,2,3,8,7,6,5,8-4[8:1],1,2,3,8,7,6,5,8q2[8:3]*p6[8:3],,,,,,,,,,,,,,,,,,,,,,,,
{16}
1-5[12:1],7,3,5,1b,,,,
&inote_6=(128)
{1},
{16}
2h[8:1],,6h[16:1],4h[8:1],,7h[8:1],,5,
7h[8:1],,3h[16:1],5h[8:1],,2h[8:1],,4,
2h[8:1],,6h[16:1],4h[8:1],,7h[8:1],,5,
7h[8:1],,3h[16:1],5h[8:1],,2h[8:1],,4,
3,3,6,6,1,1,7,7,
{32}
2,3,4,5,8,7,6,5,2z6[16:3],3,4,5,8,7,6z2[16:3],5,,,,,,,,,,,,,,,,,
{8}
8-4[8:1],7,81,,
2b^5[8:1]/5b,,2/5-1[8:1]*v8[8:1],6,,,
8,7,
6^1[8:1],1<5[8:1],2,2,
3v6[8:1],6v3[8:1],7,7,
8b-4[8:1],,2/8V62[6:1]*V64[6:1],1,,,1,28,
{16}
37,,4,4,6,6,3,3,5,5,2,2,4w8[8:1],,35,,,,,,
2,5,3,4,
2,1,3,8,
4,7,5,6,
8,7,1,6,
2,5,3,4,
1,8,2,7,
1-5[8:1],8,3,6,
,,,,
2,6,3,5h[16:4],,6,,3h[16:5],,,2q5[8:3],2,,,,,,,,,
1w5[8:1],,,,1,,,,
2-5[8:1]/7,,,,2/7V58[4:1],,8,,7/8-4[8:1],,1-5[8:1],,2,,1,,
6p8[8:1],,8q6[8:1],,,,,,2^5[8:1],,5p1[8:1],,
,,,,
7h[8:1],,5,5h[8:1],,6h[8:1],,4,5,2h[8:1],,4,3,5,4,6,
5,5,6,6,8,8,7,7,5-1[8:1],6,4,,2,,,,4b/6b,,,,
{16}
7,5,6,4,5,3,4,2,5,3,4,2,
6p1[8:1],,1v6[10:1],,,,,,3q8[8:1],,8v3[10:1],,,,,,
4^1[8:1]*p8[8:1],,5,,4pp8[8:3],,,,6h[8:3],,,,,,,,
1,,26,26,,3,,6h[16:9],
{32}
4,5,,7,8,1,2,3,4,5,,7,8,1,2,3,
{16}
4p7[6:1]*>8[6:1],,
56,,4,,,,
6,,5,,34,,2,,
1q6[6:1]*>5[6:1],,
87,,1,,,,
7,,6,,35,,2,,
1s5[8:1]/8z4[8:1],,27,,18,,,,
2,,6,,35,,,,
1,7,,
7,5,6h[4:1],,,
1-5[12:1],1,,,6,,8b,,
65,,7,,5/6-3[8:1],,3V15[4:1]*V16[4:1],,6,,,,,,,,
34,,2,,
1^4[8:1],8,1^6[8:1],8,1-5[8:1],,,,,,,,
56,,56,,78,,78,,
{32}
1,2,3,4,5,6,7,8,1s5[8:3],2,3,4,5,6,7,8,1,,,,,,,,
{16},,,,
8w4[8:1],,,,8,,,,
{16}
26,26,,35,35,,26,,
{32}
71,6,5,4,3,2,1,8,1q7[6:1]/7p1[6:1],2,3,4,5,6,7,8,1,
,,,,,,,
8v7[8:1]*v1[8:1],,,,17,,,,8v5[8:1]*v3[8:1],,,,,,,,,,,,,,,,
{16}
26,26,,17,17,,26,,
{32}
3,4,5,6,7,8,1,2,
{16}
3/7<2[4:1],,,,
2>7[4:1],,,,
7<2[4:1],,,,
1-5[8:1],,,,,,,,
{16}
73,73,,64,64,,73,,
{32}
28,3,4,5,6,7,8,1,8p2[6:1]/2q8[6:1],7,6,5,4,3,2,1,8,
,,,,,,,
1v2[8:1]*v8[8:1],,,,82,,,,1V35[8:1]*V75[8:1],,,,,,,,,,,,,,,,
{16}
37,37,,
6,4h[8:1],,
3,,
46,46,,
5,3h[8:1],,
6h[16:9],,
7,,5,,4,,
3,3,,6,6,,
4>5[16:13]/5<4[16:13],,,,
54,,,,,,,,,,,,,,,,
{4}
5-8[4:1],,
4-1[4:1],,
8-5[4:1],,
1-4[4:1],,
{16}
5,,6,,7,,3,4,2-5[12:1],5,1,,
28,,,,
7h[8:1],,5,6h[8:1],,4,5,3,
4h[8:1],,2,5h[8:1],,3,6,4,
7h[8:1],,5,6h[8:1],,4,5,3,
4h[8:1],,2,5h[8:1],,3,5,4,
6,6,4,4,2,2,4,4,
7,7h[16:3],,
{48}
8b,1,2,3,,,,,,
{16}
28,17,6qq3[8:5]/8-3[6:1],,,,,,,,2-7[8:1],,,,2,,,,
1-5[8:1],,,,
1/5-1[8:1],,6,,4V25[4:1],,,,8,,7,,
6^3[8:1],,7,,2,,1,,
{16}
2b,4,3,8b,5,7,1b,,
2-5[8:1],,2,,2/6V42[8:1]*V82[8:1],,7,,6,,,,
7,,6,,35,,
6,6,8,8,2,2,6,6,8,8,4w8[8:1],,,,,,,,
2,4,3,5,2,4,3,5,
1,7,2,8,
3,6,4,5,3,6,4,5,
3,4,6,5,3,4,6,5,
7-3[8:1],,8,,73,,,,
4,4,2,2,5,5,7,7,
5q4[4:1],,,,4q5[4:1],,,,
5<4[32:8],,,,8b,,,,
7,5,7,5,6,4,6,4,5,3,3,3,4,2,2,2,
8,8,1,1,7,7,5,5,
6v3[8:1],,3-7[8:1],,6,,2,,
1,1,5,5,3,3,7,7,
3h[24:1],5h[24:1],2h[24:1],6h[24:1],1h[24:1],7h[24:1],2h[24:1],6h[24:1],
3,5,4,4,2,6,4,4,1,7,4,,
17,,35,,2b/6b,,,,
{32}
3,,3,4,3,,3,,6,,6,5,6,,6,,
2,,2,4,2,,2,,
{16}
7h[8:1],,8h[8:1],,
{24}
7,,7,5,,6,4w8[8:1],,,35,,,4,,,,,,
{16}
1b/8b,,1b/8b,,2b/7b,,
1,7,3V51[4:1],5,2,,
6,,7,,
8h[16:1],,,,7h[16:1],,,,6h[16:1]/1w5[8:1],,,,1,,,,
3b/5b,,2,4,1,8,5,6^3[8:1],8,7,,63,,,2,,
18,,7,65,,3,3/4h[8:1],,
2,4,3,8,5-1[8:1],6,2,,
3b/5b,,3,,
4,8,2,6<1[8:1],
3/5,35,,2,
{24}
,,,4,,,
{16}
31,,82,,71,,
62,62,,53,5h[8:1]/3,,
{32}
2,1,8,7,6,5,4,3,
{16}
2bv7[8:1]/7bv2[8:1],,1b/8b,,2b/7b,,,,
6,65,,2,2^5[8:1]/4,,
1,,28,,
7,7,,6,56,,
3,4,2,8,1-5[8:1],7,8,,
1/8b,,7,,
6,5,7,8>6[16:3],
6,6,,7,
{24}
,,,8,,,
{16}
57,,46,,35,,2,4,1,8,1,,
{48}
1b/8b,72,63,54,,,,,,,,,
{16}
3,4,3,4,25,3,4,3,
6,5,6,5,74,6,5,6,
2,2,1,1,8-4[8:1],8,7-5[12:1],7,
8-2[12:1],,7-3[8:1],,8,,7,,
{32}
2,,2,,7h[384:1],,7h[16:1],,3,4,8h[16:1],,4,,8h[16:1],,
2,,2,,7h[384:1],,7h[16:1],,3,4,8h[16:1],,4,,8h[16:1],,
{16}
2,2,1,1,8,8,7,7,
{32}
4w8[8:1],3,2,4,5,6,,,4,,,,,,,,
{32}
1,,1,,7,,7,,1b,2,3,,3/5b,6,7,,
2,,2,,8,,8,,2b,3,4,,4/6b,7,8,,
3,,3,,1,,1,,3b,4,5,,5/7b,8,1,,
4,,4,,1,,1,,
{32}
1b,2/8,37,4/6,5,,,,
{32}
1,,1,,7,,7,,5,,5,,3,,3,,
5-3[16:1],,5-7[16:1],,5-2[12:1],,5-8[12:1],,5p4[8:5],,,,,,,,,,,,,,,,,,,,,,,,,,,,,,,,
1-5[12:1],,7,,3,,5,,1b,,,,,,,,
