&title=Seclusion(feat. Sennzai)
&artist=Laur
&first=0
&lv_5=13+
&des_5=Sean
&inote_5=
(175){4},,,1>4[4:1],
4p4[8:3],6,8<5[4:1],5qq5[8:3],
3,2<7[4:1],7<4[4:1],4>1[4:1],
{2}8h[2:1],{8}6,5,{4}6/4>1[8:5],
6,7,5<8[8:5],3,
{2}2-5[2:1],{4}7,6,
(58.33){1}5w1[4:3]/4w8[4:3],
{2},(175)3/5h[4:3],
{8}6,7,8,1,{2}8h[8:3]/2h[8:3],
{8}4/7p5[2:1],,,1,{2}1h[4:3],
{8}8,7,6,5,{2}2h[8:3]/4h[8:3],
5/6p4[2:1],C,
{32}2,1,,,{8}3,5/4,6,7/E2,4,2/E8,5,
{2}1/Cf,4h[2:1]/1s5b[2:3],
,6h[2:1],
{4},,4/5h[4:1],{8}4,3,
{4}4/2h[4:1],{8}7,6,{4}5/4,{8}2,1,
{4}8/3,{32}5,6,,,,,,,{4}4/3h[2:1],1h[8:1],
6h[2:1],8h[8:1],4,5/3,
{2}4/2>5[8:1],{4}8/7,{8}1-5[4:1],7,
{4}A1,8h[4:1],2,{8}7-3[4:1],1,
{4}A7,4h[4:1],2,{8}5-1[4:1],4,
{4}A5,3,{2}Ch[2:1],
D2/E2/A2/B2,4/3b-8<5[2:1],
{4}5-8-3[2:1],,,5-1[8:1],
{8}5/3,4-8-6[8:3],,,{2}6b<3[2:1],
{4}5pp6[8:3],5,{8},3,2-6[8:1],{16}4,4,
{8}2>5[8:1],8,1/2,8,{2}8b-5-3[2:1],
{4}3<8[2:1],,,2-6[8:1],
{8}2,5s1[8:3],,,{2}1bs5[8:3],
{4}2-6[8:1],{8}4,4,,8/7,{24},,,3,4,5,
{2}6-2[8:1],{8}5/4h[4:1],A3,A2,A1,
8h[4:1],A7,A6,A5,{32}3,4h[32:7],,,,,,,,,,,,,,,6,
5h[32:7],,,,,,,,,,,,,,,{8}1/8h[4:1],A7,A6,A5,
4h[4:1],A3,A2,A1,{32}7,8h[32:7],,,,,,,,,,,,,,,2,
1h[32:7],,,,,,,,,,,,,,,{8}5/4,4,5/3,3,
5/2,2,5/1,1,5/6,6,5/7,7,
5/8,8,5/1,1,{16}4,6,4,6,4,6,4,6,
3,7,3,7,3,7,3,7,{32}1,2,3,4,5,6,7,8,1,2,3,4,5,6,7,8,
1/5,4,3,2,1,8,7,6,5,4,3,2,1,8,7,6,{2}5/1b<6-2>5[2:1]*<6-2>5[2:1],
{16},,,,,,,,4,7,5,6,5,6,3,5,
4,5,4,5,{4}1>4b[8:1],{32}5bx,6bx,7bx,8bxh[32:9],,,,,,,,,{16}4,4,
{4}8-4[8:3],8/1h[4:1],{8},1,{16}7,5,6,2,
4,3,6,5,7,3,4,1,{2}7bs3b[8:1],
{6}5/4,1h[12:1]/2h[12:1],E5/B4/A4/A5,2h[12:1]/1h[12:1],{24}E7/B7/A7/A6,,,,,4,{48},{16}4,
{4}Cf,8x<5b[8:1],{32}4bx,3bx,2bx,1bxh[32:9],,,,,,,,,{16}5,5,
{4}1-5[24:1],{12}6-3[24:1],,2-7[24:1],,5-8[24:1],,{4}1-4[24:1],
{2}Cf,{8}7>2[8:1],6,5,4<7[8:1],
3,2,1v4[8:1],8,7,6-8>1[8:1],5,4,
3bx-7[8:1],2,3/5bx-1[8:1],4,{32}2q4-6-8-2b[8:3],Cf,{4},,{16},,,{4}5bx/4bx,
7bx/1bx,{12}6bx/4bxq6b[16:3],3bx,2bxh[24:5],
,,,1bx,2bx,3bx,{4}4bx/5bx-1b[16:1],5bx/3bx-8b[16:1],
3bx/7bx-4b[16:1],{8}7bx/1bx-5b[16:1],2bx,{4}1bx/8bx,Ch[4:1],
{8}2h[8:1],3h[8:1],{4}4w8b[16:1],{12},,,2h[12:1],6,6,
3h[12:1],7,7,4h[12:1],8,2,5h[12:1],1,1,6h[12:1],2,2,
7h[12:1],3,3,8h[12:1],4,6,5x/3x,2,2x,5x/6x,7,7x,
8x/1x,2,2x,4x/5x,6,6,{4}1b-7-2-6-3-5b[8:5],{8}A1,A7,
A2,A6,A3,A5,{2}8h[4:1],
{8}1/7h[4:1],2,3,4,5/6h[4:1],{16},,,,3,3,
{8}5>2[8:1],6,7,8,C,5h[8:3],{4}3,
{8}2h[4:1],5,6,7,{4}8/1h[4:1],{8}7,6,
{2}4/5h[4:1],{4}4/3h[4:1],6v1[4:1],
8h[8:1]/A6,{8}7,7,{4}5/6h[4:1],3v8[4:1],
1h[8:1]/A3,{8}2,2,5/4h[4:1],6,{4}7v4[4:1],
{8}1/A7,1,2,2,{2}3v8[4:1]/5v8[4:1],
{16},,,,,,7,6,{8}5/1,2,2-8v3[8:3],2,
2/7,6,6v1-7[8:3],6,6/5,4,4w8[8:1],4,
{4}4,3/5,{8}4/8,7,7qq6[8:3],7,
7/2,3,3qq2[8:3],3,3/4,5,5w1[8:1],5,
{4}5,6/4,{8}6/2pp5[2:1],6,7,7,
8,8,1,1,4/8qq5[8:5],4,3,3,
2,2,1,1,{16}2,6,3,4,3,4,3,4,
2,5,2,5,1,6,1,6,{32}B1,B8,E8,E7,E6,E5,E4,E3,A2,A1,A8,A7,A6,A5,A4,A3,
{4}E2f/D2/A2/B2/B1,{16}7/1<6[16:1],2,3,4-8b[16:1],1b,,,4/5b,,,{8}6bh[8:1],
{16}8<5[16:1],1,2,3-7b[16:1],8b,,,3/4bz8z4[16:5]*z8z4[16:5],,,{8}5b/6b,{16},,,,,,,,2/8>3[16:1],
7,6,5-1b[16:1],8b,,,5/4b,,,{8}3bh[8:1],
{16}1>4[16:1],8,7,6-2b[16:1],1b,,,6/5bs1s5[16:5]*s1s5[16:5],,,{8}4b/3b,{16},,,,,,,,1,
8,5,6,{24}3,4,3,4,3,4,{16}3,4,3,4,
{8}5/2p8<1[2:1],1,{4}2,,,5h[8:1]/4h[8:1],
{16}2,1,2,1,{32}4/E1,5,{16}6,{32},,3/E8,4,{8}5,{32}2/E7,3,{16}4,
{4}Ch[8:1],{32}6/E2,5,{16}4,{32},,7/E3,6,{8}5,{32}E4/8p5[16:5],7,{16}6,,,,,,,,,,,,,{4}5b/4bqq2b[4:3],
5,
5,5,5bp8b[4:3],2,
2,2,2bp4b[4:3],8,
8,8,7,6,
{16}4/5h[4:1],3,2,1,8,7,6,5,{8}4/6,6,4/7,7,
4/8,8,{4}Ch[8:1],{8}4/2,2,4/1,1,
4/8,8,{4}Ch[8:1],{16}8,6,7,2,4,3,6,5,
8,2,7,1,6,8,7,5,{24}6,4,6,4,,,3,5,3,5,{96},,,,,,,,{32}4,
5,6,7,8,1,2,3,4,5,6,7,8,1,2,3,{2}4pp6pp8pp2pp4b[2:7]/7pp1pp3pp5pp7b[2:7],
{4},,,,,,,,,,,,,,5/4h[1:1],
7,
1,{8}3,3h[8:9],,,{4}6,
8,{8}2,2h[8:9],,,{4}5,
7,{8}1,1h[8:7],,,{4}6,
{1}8h[8:3],
E
