&title=ギターと孤独と蒼い惑星
&artist=結束バンド
&first=0.01
&des=闇靈DarkM
&lv_5=13
&inote_5=(193)
{4},,,,
1h,1h,1h,1h,
{8}
8/2,3-1[8:1],4,5,,8-4[8:1],1,2h[4:1],,1h[4:1],,8>3[8:1],,7,7,,
4/6,7-5[8:1],8,1,,4-8[8:1]/2,,3V15[8:3],,6<8[8:1],,,,7/2,7/2,,
8/2,3-1[8:1],4,5,,8-4[8:1],1,2h[4:1],,1h[4:1],,8>3[8:1],,7,7,,
2/7,1,2/7,8,2/7,1,2/7,8,
3/6,4,3/6,5,3/6,4,4/5-8[8:1],4/5,
{4},,,,,,,,
2h[4:3]/4,6,4,6,
7h[4:3]/5,3,5,3h[4:8],
6>4[8:1],,2<8[8:1],,6>4[8:1],,2<8[8:1],,
1/2h[4:1],3<6[4:1],2,1,8/7h[4:1],6>3[4:1],7,8,
1/2h[4:1],4,7h[4:1]/8,5,3/4,6/5,{8}4/8,2b/6b,,,
3/5,,3/7,3,5,4,7,4,5-1[8:1],,1-5[8:1],,5,,3h[4:2],,
6>4[8:1],,,3h[8:3],2x<8[8:1],,,3h[8:3],6x>4[8:1],,,3h[8:3],2x<8[8:1],,,3,
6V48[4:2],,4,,1,,1,,3V51[4:2]/7,,5,,8,,8,,
7<4[8:1]/1,,3,,2>5[8:1]/8,,6pp1[8:5]*p3[8:5],,6,,,,,,,,
{2}
6pp6[4:3],,5qq8[4:4],,6pp3[4:4],,4,2,
3qq3[4:3],5,4pp1[4:4],3,3qq6[4:4],6,{4}7,7,8,8,
{8}
7<2[8:4],,1,1,1,1,1,,
7<2[8:4],,1,1,1,1,1,,
{8}
8-4[4:1],,4<7[4:1]*V68[4:1],,,,,,
1-5[4:1],,5>2[4:1]*V31[4:1],,,,,,
{8}
8<3[8:4],,2,2,2,2,2,,
1>6[8:4],,7,7,7,7,7,,
{16}
1b/8b,,3,4,3,4,3,,
6,5,6,5,6,,1,,
8b,,4,5,4,5,4,5,
4,,7,2,8,1,8,1,
{4},3h,3h,3h,
{8}
7-4[8:1]/5-1[8:1],4,7b/5b,,7-4[8:1]/5-1[8:1],4,7b/5b,,
7-4[8:1]/8,,7/8-5[8:1],,6-2[8:1]/8,,6/3<7[4:1],,
7q3[4:1],,3<7[4:1],,7>3[4:1],,3q7[4:1]*v8[4:1],,
,,,1,6,5,3,2,
1/4<7[8:1],1h[8:2]/4,,,2/3v8[8:1],2h[8:2]/3,,,
1/4<7[8:1],1h[8:2]/4,,,7/2,3,4,5,
6-2[8:1]/3,,6/4-1[8:1],,4/8-4[8:1],,8/5w1[8:1],,
5b,,{16}1,8,1,8,2,7,2,7,1b,,,,
{8}6/4,5,2qq1[4:1]/4pp5[4:1],,2/4,,,,4/2-5[8:1],,2/1-4[8:1],,3-7[8:1]/1,,3/6<3[4:1],,
6b/3,,4>6[4:1],,4b/6,,5w1[8:1],,5b,,7/3,,{16}4,5,4,5,4,5,4,5,
{8}3/6,,1-4[8:1],1,5-8[8:1],5,1-4[8:1],1,
6-1[8:1],6,2-5[8:1],2,7-2[8:1],7,3,3,
4/1,4,3/8,3,2/7,2,1/6,1,
5/8,5,6/1,6,7/2,7,3/8,,
4/5,,2b-5[8:1],6b-1[8:1],2bv7[8:1],6bv3[8:1],2b,6b,
1,1h[8:5],,,3b-8[8:1]*-8[8:1],,,{64},,,,,,,,{8}
1/7,6-8[8:1],5,4,,1-5[8:1],8,7h[4:1],,8h[4:1],,1<6[8:1],,2,2,,
5/3,2-4[8:1],1,8,,5-1[8:1]/7,,6V84[8:3],,3>1[8:1],,,,2/7,2/7,,
{8}1/8,8h[8:3],,{16}2,3,4,,8,,1h[8:2],,{16}7,6,5,,1,,8h[8:2],,3,4,5,,7/4,,6/3,,2/5,,
4,,4,,3,5,3,5,4,6,4,6,5,7,5,7,6,7,6<4[8:3],7,6,7,6b,,,,,,,,,,
{8}5,,6,,5,4,,4,,3,,2,,1/8,2/7,
{1}3h[4:27]/6b>6[4:23],,,,,,
{4},,,6b,
