&title=May Day May Day
&artist=メガテラ・ゼロ
&first=1.17
&des=Aza
&lv_5=13+
&inote_5=(172)
{8}4/5,,3,3,4,4,2,2,{4}5>1[4:1],1<5[4:1],5V31[4:1],1-6[7:1],,{8}4,4,{4}3-5[8:1]/5,7-5[8:1],1-5[8:1],5,7-3[8:1],3,,8<5[8:1],{8}4,3,2,{4}4pp3[4:1],1,,{8}2>5[8:1],1,8,,7<4[8:1],8,1,,2,3qq5[8:3],,{4}7,7,{8}6,5,{4}4w8[8:1],
{2}4qq6[1:1],C,8qq2[1:1],C,3qq5[1:1],C,7>2[2:1],{8}C,,,{32}D4,A4,D5,A5,{8}6x,6hx[8:1],5,7,7-4[8:1],,3,3,2,2h[8:1],4,1,1-5[8:1],{16},8,{8}1,{16}8,7,{2}6b-1[8:1],{16}2h[16:3],,,3h[16:3],,,4,3,{4}2bqq5b[2:1],5,6,7x,
{8}6h[8:1]/4x,2,6h[8:1]/4,2,6h[8:1]/4,2,6h[8:1]/4,2,3h[8:1]/5,7,3h[8:1]/5,7,3h[8:1]/5,7,3h[8:1]/5,7,6h[8:1]/5,2,4h[8:1]/5,7,5h[8:1]/3,1,2h[8:1]/4,6,3h[8:1]/5,7,5h[8:1]/3,4,4/6,{16},6,5,,4,5,{8}4h[8:1],6,5/7,,5h[8:1],3,4/2,,4h[8:1],6,5/7,,5h[8:1],3,4/2,,1h[8:1],7,8/6,,8h[8:1],2,1/3,,4/7,{16},6,{8}5,4,{4}3-8[8:1]/5-2[8:1],3b/5b,
7x,{8}5/6,6,4/5,4,3/5,5,{4}6-1[8:1],2-5[8:1],8-4[8:1],1,2-5[8:1]/3x,{8}5,6,7-4[8:1],7,{4}5>1[4:1],1>5[4:1],6-8[8:1],6-4[8:1],2/6,1x/8x,{8}2h[8:1],8,7h[8:1],5,4,3/6pp3[8:3],,6,,,,2>5[8:1],1,2,,7-3[8:1],8,7,,1h[4:1],,5,2-7[8:1]/6-3[8:1],,2/6,,1-5[8:1]/2-6b[8:1],3/8,1/2,,
{4}4x/8x,{8}3,3/5,6,5/6,{4}4/7-4[8:1],8-4[8:1],1>7[4:1],2x,8-3[8:1],5/8,4/6>3[8:1],{8}6,2,1-4[8:1],8,{4}1-6[8:1]/7,1>4[8:1],1-5[8:1],1,{8}4x/6,6,4x/7,7,4x/8,8,3x/7x,3/7,{16}2x,6,2,6,1x,5,1,5,{32}1,2,3,4,5,6,7,8,1x,2x,3x,4x,{2}5bw1[1:1],,{8},,,,,{2}A7/A3/B7/B3/C,
{4}1-5[8:1]/5-1[8:1],,{8}8V26[4:1],2-6[8:1],,4-2[8:1],,4<8[4:1],,4,2z6[4:1],,,,{4}5v3[8:1],4v6[8:1],{8}7,8,1-3[8:1],1-7[8:1],{2},6b>3[8:1],{4}1-5[8:1]/2-5[8:1],1/2,{8}6,3/7-3-7[4:1],,1-5-1[4:1],{2},{8}8b,2x,2x,,3>8[8:1],,6,5<8[8:1],,3,4V26[4:1],,,,,,5h[4:1],{16}E6,E7,E8,E1,E2,E3,
{4}6x-3[8:1],2-5[8:1]/6,7-4[8:1]/2,3<6[8:1]/7,1s5[4:1]/3,2-6[8:1],2,7/8,2/4xqq5[4:1],4/6xpp5[4:1],6,4>8[4:1],4-6[8:1],4,7v1[8:1]*v4[8:1],7b,{8}2-5[8:1],3/5,6,7,8-4[8:1],,3/8,,5-2[8:1],4/6,7,8,1<6[8:1],,1/4,3,2/5,6,4/7,3,2-6[8:1]/5,,2/7,8h[8:3],,,4>8[4:1],,8,,4b,,
{4}3x-6[8:1],7-4[8:1]/3,2-5[8:1]/7,6>3[8:1]/2,8z4[4:1]/6,7-3[8:1],7,2/1,3/7V15[4:1],4V26[4:1]/7,,8,3-1v8-6b[2:1]/5,6,5x,5x,4-7[8:1],1-5[8:1],8>3[8:1],4w8[8:1],4,{8}2x/6x,2/6,{16}2,3,4,5,8,7,6,5,{1}1x<2[2:1],{4}1xpp2[4:1]*qq8[4:1],,,1xV74[4:1]/6xV84[4:1],
1/6,,{16}2x,3,4,5,{8},6pp1[8:3],,,{4}3-5-2-6[8:3],,,8>6[2:1],,8,{16}8,1,{8}2h[4:1]/7x-3[8:1],,,1h[4:1],,{16}4h[16:3],,,5h[16:3],,,{8}6,{2}4-1[8:1]/7h[4:1],{16}D7,D6,D5,D4,D3,D2,{8}D1f,,,2/4,,5/7,8,{16}8x,1/7,2/6,3/5,{8}4h[8:3],,,5h[8:3],,6x,6<3[8:3],,,,Ch[4:1],,,D8/E8,D2/E2,,
{1}3bq4>5[2:7]/6bp5<4[2:7],,,,{4}E4,B3,B2,{8}E2,C,{4}E6,B6,{16}B7,,,C,E8,,E1,,{4}7bx-3[8:1],8bx-4[8:1],1bx-5[8:1],2bx-6[8:1],{8},1,1,1,2/8,2/8,3/7,3/7,{16}2,5,3,6,4,7,5,8,{32}6x,7x,8x,1x,2x,3x,4x,5x,6x,7x,8x,1x,2x,3x,4x,5x,{4}6x-3[1:1],,,,,,{8}4h[4:1],{16}E4,E3,E2,E1,E8,E7,
{4}3x-6[8:1],{8}7-4[8:1]/3,8x,{4}2-5[8:1]/7,6>3[8:1]/2,8z4[4:1]/6,{8}7-3[8:1],6x,{4}7,2/1,7/5xpp4[4:1],{8}5/3xqq4[4:1],2x,{4}3,5<1[4:1],5-3[8:1],{8}5,7x,{4}2v8[8:1]*v5[8:1],2b,{8}7-4[8:1],6/4,3/7b,2,1-5[8:1],,6/1,7,4-7[8:1],5/3,2/4b,1,8>3[8:1],,8/5,6,7/4,3,5/2,6,7-3[8:1]/4,,7/2,1h[8:3],,,5<1[4:1],,{16}1x,2x,3x,4x,{4}5b,
{4}6x-3[8:1],{8}2-5[8:1]/6,1x,{4}7-4[8:1]/2,3<6[8:1]/7,1s5[4:1]/3,{8}2-6[8:1],3x,{4}2,7/8,2V84[4:1]/5V73[4:1],5b/2b,,1v8-6[4:1]/3-1[8:1],1b/3b,{8}3,3,{4}2/4x,5x/4x,5-2[8:1]/7,{8}8-4[8:1]/5b,7,{4}1<6[8:1]/8b,5w1[8:1]/1b,5b,{8}7x/3x,7/3,6,5,4,3,{16}2b/4b,,,7/8,,,1/5,,4b/6b,,,2/1,,,3qq8[8:3]/7qq4[8:3],,{2}3b/7b,{8},1/5,{4}1/5,
{8}2/4-8[8:1],3,4/5,6V82[4:1],,2/6,3,4>7[4:1],,4/7,6,5V71[4:1],,2/5,3,4,1/3,2,6/8,7<3[4:1],,3/7,2,1,2V48[4:1]/8,3/7,2b/8,7xV51[4:1],,1/7b,2x,3,{16}3,4,2,,6,5,7,,{8}1/8,2-5[8:1]/7-4[8:1],,2/7,,{16}2,1,{8}3-5-2-6[8:3],,,E7,E8,E1,1/2>5[8:1],,2/8,7V51[8:1],,7/4,2,8<5[8:1],,8x>3[8:1],2b,8x-4[8:1],4b,8x,1b,,
{16}2x/6x,,3x,4,3,,7x,8,7,,2x,4,3,5,4,6,5h[8:1],,8x,7x,6x,,4x,3x,2x,,D1/E1,D8,D7,D6,D5,D4,2x,,7x,8,7,,2x,1,2,,7x,5,6,4,5,3,4h[4:1],,,,1x,2x,3x,4x,1x/5x,8x,7x,6x,{8}5x/2bx,3,6,{16}6x,5,7,,3x,4,2,,8x,1,7,2,6,3,{8}5h[4:1],,1,2/6pp4[4:1],,3x,3,3,2x/5x,2/5,3x/6x,3/6,{16}7x,4x,6x,3x,5x,2x,4x,1x,{4}3hx[4:1],{16}8-3[8:1],,,8x,,,4x,,{32}4xw8b[8:1],5x,6x,7x,8x,1x,2x,3x,{4},
