&title=Rat A Tat!!!
&artist=765 MILLION ALLSTARS
&first=1.81
&des=Bubble
&lv_5=14
&inote_5=(192)
{4}8pp5pp8[4:13]/2,,,C,,,,B2/B3,Ch[2:1],,,{8}4,3,{4}2h[4:1],,1,1-7p3-8-4[2:3],1b,{8},5,{4},6,6,7,7,8,8<5[2:1],,,{8}4qq1[4:3],3,{4}6,7,8,,2h/3h,{8},6h/7h,{4},4h/5h,1,{8}1/8v6<7v5[2:1],27,{4},{8}1,2,{4}3,45,{16}26,3,4,5,6,7,8,1,{8}2-7[8:1]/6,3,2/1-4[8:1],8,{8}1/2-6[8:1]*-5[8:1],3,2,,{8}7x<4[8:1]/8,6,7/8>3[8:1],1,7w3[8:1]/8,6,7b,,
{16},,1,2,3,5,6,7,2,3,4,6,7,8,3,4,5b,,,,36,,45,,
{16}E7h[2:1],,,,{32}E1,B1,E2,B2,E3,B3,E4,B4,
{4}5x-1[8:1]/E5,6-2[8:1],7-3[8:1],8-4[8:1],1,{8}1-3b[8:1]*-7b[8:1],2x/8x,{8}1b,,5-3[8:1]*-7[8:1],46,5-1[8:1],,5,,8v5[8:1]/2v5[8:1],1,82,,
{8}6,5,7,4,8,3,
{16}1,2,1,2,
{4}1-5[8:1],2-6[8:1],3-7[8:1],4-8[8:1],5,{8}1,8,{8}2v5[8:1]/7-4[8:1],,27,,{8}3/6v1[8:1],3,36,,2v5[8:1]/8,8,2/8,,{8}7b/4b,2b/5b,3b/8b,1b/6b,,,{16}E8,E1/E7,E2/E6,E3/E5,
{4}E4,
{4}2-5[8:1],2/8-4[8:1],1v6[8:1]/8,17,{8}8,7,{4}1-6-8[4:1]*-4-2[4:1],1,,
{4}7-4[8:1],7/1-5[8:1],8v3[8:1]/1,2v5[8:1]/8,{8}2/7-3[8:1],,{4}7/1^4[8:1],1/6-1[8:1],36,{8},1x-6-8-5[8:9]*-4-2-5[8:9],{4}28,,,,,,{8}1-6[8:1],2-5[8:1],1,2,7-3[8:1],,7,8-4[8:1],,8,5,,{16}3,4,3,,6-8[8:1],5,6,5,{4}6,2-5[8:1],7-4[8:1],1-5[8:1],8,
{8}1,7,{4}8-3[4:1]*-5[4:1],8,,{8}4/5-1[8:1],36,{4}45,2>6[4:1],6<2[4:1],2-4-6[4:1],6-8-2[4:1],2-6[4:1],6<2[4:1]*>2[4:1],,{8},,3,24,,56,7,4b-8[8:1]/8b,,7,6,,27,3,4,5,6,1-5[8:1]/8-4[8:1],27,18,,7,68,15,{16}3,4,2,,6-2[8:1],5,7,,6,,,,1-5[8:1],,,,{4}1/7-3[8:1],7,28,{8}2-5[8:1]/8-4[8:1],37,{4}28,{8}6,3,4-2[8:1]/5-7[8:1],,45,,{8}18,2,1/8-4[8:1],6,{4}1-3[8:1]/8,1-6-4-7[8:5],{8}1,,{4}3-8[8:1]b,3,6q8[2:1],1,{16}1,,2,3x,{4}4x-6[8:1],4-2[8:1],4-8[8:1],4-7-2-5-8[1:1],E4h[1:1],,,,,B2/C/B6,{8}3h/7,,
{8}8-2[8:1]/4h,,8-6[8:1],5h,8-2[8:1],3h,8-6[8:1],5h,8,3h,
{16}8b,1,2/5h,,8b,7,6/3h,,8b,1,2/5h,,8b-2-6-4-8[4:5],7,6/3h,,
{4}8b/4bh[2:1],,,3b-8[4:1]b,3b,{16},,17,26,3v8[8:1]/5v8[8:1],,,,{8}35,,1-6[8:1]/7,28,1-4[8:1]/3,,1,,3/5-1[8:1],46,5b-8[8:1]/7,,5-2[8:1],,5,,
{8}3-5[8:1],6,3-7[8:1],7,3/8w4[4:1],6,
{4}8b,,
{4}6/4v1[8:1],{8}74,8^5[8:1],,82,1,,{4}35,{8}73,8-4[8:1]b/2,,82,{4}1-6[8:1],
{8}1-4[8:1],4,1-6[8:1],6,1-4[8:1],4,1pp5[2:1]*qq5[2:1],,1,,,,
{16},,4,6,3,7,2,8,{8}1h[4:1],,,{16}26,37,4h[8:1]/8h[8:1],,,,3/7v4-6-1[2:1],26,15,,{16}7,,,,1-5[4:1],2,3,,2,3,4,,
{16}3,2,1,,{32}8b,1,2,3,4,5,6,7,8,1,2,3,4,5,6,7,8,,,,,,,,
{8}6-4[8:1],3,6-2[8:1],2,6/1>4[4:1]*-7-5[4:1],3,
{4}1b,,
{4}3/5v8[8:1],{8}25,1q5[8:1]/7,,17,8,,{4}4b/6b,{8}26,1-5[8:1]b/7,,17,{4}8-6[8:1],
{8}8-2[8:1],3,8^5[8:1],5,8^3[8:1],3,8w4[4:1],,8,,,,
{16}2b,7,1,8,2,7,1,8,
{4}2-6[8:1],1bq5[8:1],8bp4[8:1],7b-3[8:1],2b-8v5[4:1],{8}5-3[8:1],6,{4}7q8[4:1]b,{8}7,2x,2x^4[8:1],,{4}2p1[4:1],{8}2,6x,{4}6xh[4:1],{8}8h[8:1],7h[8:1],5h[8:1],6h[8:1],3,4,{16}2,1,2,1,{4}2-5[8:1],7b-4[8:1]/2,1b-6[8:1]/7,8b-3[8:1]/1,2bv5[8:1]/8,{8}7b-3[8:1]*-4[8:1],6,{4}7b-2[8:1]*-1[8:1],7,{8}3/8xv5[8:1],3,3/8,,1^3[8:1]/6,6,16,,4x/5p4[4:5],,,,,,,,{4},,,
{8}E2,B1,{8}B8,,,C,,,E8,,E7,,E6,,{4}E2,E3,E4h[2:1],,,{8}E6,B5,{8}B4,,Ch[2:1]/E7,,E8/B8,,,,{4}1/8q1[4:3],,,1>8[4:3],E3,{8}E4,B4,{4},2pp4[2:1]*qq8[2:1],2,,,48,4xh[4:3]/8xh[4:3],,,,
{8}3h[8:1],7h[8:1],2h[8:1],6h[8:1],1h[8:1],5h[8:1],4h[8:1],8,{8}15,1,26,2,37,3,48,4,1>7[2:1]/5bh[4:3],,,,,,,,{16}4,6,4,6,3,5,3,5,2,4,2,4,1-5[8:1],3,1,3,{4}1b,{16},,46,37,{4}2-4[8:1]/8-6[8:1],2v5[8:1]/8v5[8:1],2pp2[2:1]/8,28,{8}7,7,6,6,{16}15,8,7,6,5-8[8:1],4,3,2,
{4}1-5-3-8[2:1],{16}1,,,,{16}8,7,6,,5,6,7,,{32}8,7,6,5,4,3,2,1,8,,,,,,,,
{8}1/5b-7[8:1],,25,1-5[8:1],,17,6,,
{8}8/4b-2[8:1],,47,8-4[8:1],,82,3,,
{8}2v5[8:1],6v1[8:1],2,6,2-4[8:1],6-8[8:1],2-6-3[4:1],6,2,,,,{16}4,5,4,5,3,6,3,6,{4}7-5[8:1]/2,8-4[8:1]/7b,1-5[8:1]/8b,1b/2-4[8:1],2b/8,{8}5-1[8:1]/6-2[8:1],47,5/6,,{8}4-8[8:1]/3,52,{4}4b/3-7[8:1],3b,{8}1,2^5[8:1],1^6[8:1],2,{4}1b,{16}1/8x,,27,,36,,,,{16}4,5,3,6,{4}2-6[8:1]/7,1-5[8:1]/2b,1b/8-4[8:1],8b/7-3[8:1],2/7b,{8}2/4-1[8:1],35,{4}4/6-1[8:1],6b,{8}1v4[8:1]/7,7,17,,3/8-5[8:1],3,38,,
{8}3bh[8:3]/6b,6b-8[8:1],6b,6b,E
