&title=Tech-Nique
&artist=DevoteOSU
&first=0.1
&des=Jack2310
&lv_5=14.2
&des_5=Jack2310
&inote_5=
(175){4},,,,{1}3h[1:1]/7qq4[4:5],
{4},,,1,
{8}2q4[8:5],,,7,,,{4}6,
{8}8<4[2:1],,,3h[4:1],,,{4}2,
3/5h[4:3],3,2,2,
1,1,8,8/1>5[2:1],
{8}7/1,,,6h[4:1],,,{4}7qq4[8:7],
{2}7/3h[4:1],Ch[8:3],
{4}5b/3b,{16}3,4,2,5,2h[16:3],,,6h[16:3],,,{8}1h[8:1],
{4}7b,{16}5x,4x,3x,2x,5x,6x,7x,8x,4x,3x,2x,1x,
{4}7b,{16}1pp5[2:1],8,1,7,1,,,6,,,{8}7,
{2}8b,{16}8/7,,,2/1,,,{8}5/6,
{4}4b/3b,{16}3,6,4,5,3h[16:3],,,7h[16:3],,,{8}2h[8:1],
{4}6b>4[4:1],4q1b[8:3],,,8b/2b,
{16}8,1,7,2,6,3,5,4,6,3,5,4,
{2}6b,{16}3/4,,,2/1,,,{8}1/8,
{16}8h[16:3],,,1h[16:3],,,{8}2,{16}3h[16:3],,,4h[16:3],,,{8}5,
{16}6h[16:3],,,7h[16:3],,,{8}8,{4}2b/1b,{8}1x,{16}4x,3x,
2xh[16:3],,,1h[16:3],,,{8}8,{16}7h[16:3],,,6h[16:3],,,{8}5,
{16}4h[16:3],,,3h[16:3],,,{8}2,{4}8b/1b,Ch[8:1],
{8}1,2,3/6,4,8/5,7,6/3,5,
2/6,3,4/8,5,7/4,6,5/2,4,
{16}1,2,3,4,5,6,7,8,{32}1x,2x,3x,4x,5x,6x,7x,8x,1x,2x,3x,4x,5x,6x,7x,8x,
{4}1x,{32}B2,B1,,,B7,B6,,,{16}E4/A4/E5,,,E8/D8/A8,,,{8}E2/A2/E3,
{4}6b,{8}4,{16}5,6,,4,{8}3,{16}E6,B3,E7,E2,
{4}8,{8}7,3h[16:1],{16},2,5,2,{4}5,
3xh[8:1]/4xh[8:1],{8}5,{16}4,6,,3,7,4,{4}6,
{16}2h[8:3]/E7,E8,E1,E2,,,E7,E6,3b,,,5/6,,,{8}3/4,
{4}5b,{8}3,{16}6,2,,5,3,6,{4}4h[8:1],
{8}7,2,7,{16}8,1,7-5[8:1],2,8,1,{4}7,
4h[8:1]/3h[8:1],{8}2,{16}3,4,,3,5,2,{4}6h[4:1],
2,{8}B7,B3,{16}4b,,,7b,,,{8}1b,
{4}3b,{8}2,{16}1,8,,2,7,3,{8}6h[4:1],{32}B3,E3,,,,,,,,,,,{8}2,
{16}3,4,,5,4,6,3,7,{8}2,
{4}6h[8:1]/3h[8:1],{8}7,8,{16}1,7,2,6,{4}3,
{16}7h[4:1]/E3,E2,E1,E8,,,E3,E4,8b,,,5b,,,{8}7b,
{4}3b,{8}4,{16}5,4,,6,3,7,{8}2-4[8:1],{32}E7,B6,,,,,,,,,,,{8}7,
{16}1,8,,2,7,3,{4}6,
5h[8:1]/4h[8:1],{8}3,{16}5,4,,6,3,6,{4}3,
{16}7,2,{8}7,{16}1,8,{8}1,{16}8h[16:3],,,7h[16:3],,,{8}6,
{16}5h[16:3],,,4h[16:3],,,{8}3,{16}2h[16:3],,,1h[16:3],,,{8}8,
{16}7h[16:3],,,6h[16:3],,,{8}5,{4}4b,{8}3,{16}4x,5x,
6xh[16:3],,,7h[16:3],,,{8}8,{16}1h[16:3],,,2h[16:3],,,{8}3,
{16}4h[16:3],,,5h[16:3],,,{8}6,{4}7b,Cf,
{8}8/1,2,3/7,4,8/3,7,6/2,5,
4/6,3,2/6,1,5/2,6,7/2,8,
{16}1,2,3,4,5,6,7,8,{32}1x,2x,3x,4x,5x,6x,7x,8x,1x,2x,3x,4x,5x,6x,7x,8x,
{16}B1/B2/D2,,,E4/D4/A3,,,E5,E6,E7/A7/E8,,,B1/B2/C,,,6,5,
7h[16:3],,,4h[16:3],,,{8}6h[8:3],{16}2,,,1,,,{8}8-4[8:1],
,7-3[8:1],,6,{16},,,,4,5,3,6,
{4}4bxh[4:7],{16}7x,6x,{8}5x,{6}E6,E7,E8,
E1,E2,E3,E4,{48},,,,,,,,,,{16}4,5,
{4}3h[4:1],{8}4<7[8:1],5,{4}2,{16}1x-5[8:1],8x,1x,8x,
{4}2x-6[8:1],3-7[8:1],4,{16}5,4,5,4,
{4}6bxh[2:3],{16}2x,3x,{8}4x,{6}E5,E4,E3,
{8}E1,E2,E3,E4,{16}A2,D2,A1,D1,A7,D7,A6,D6,
{8}4bx/3bx,2,1V37[4:1],8,{2}7V52[4:1],
{8}8,7,6V84[4:1],5,{2}4V27[4:1],
{8}3,2,1V35[4:1],6,{2}5V72[4:1],
{8}5h[4:1],3,2h[4:1],6,7h[4:1],3,{4}Ch[8:1],
{8}8/1,7,6/2,5,1/4,2,3/5,4,
5/2,6,7/3,8,4/7,3,2/6,1,
{16}8,1,8,1,8,1,8,1,{32}8x,7x,6x,5x,4x,3x,2x,1x,8xw4[4:3],7x,6x,5x,4x,3x,2x,1x,
{1}8x,
{8}4b/5<8[8:1],6,5/4,3,{16}2-6b[8:1],1,3,1,{8}2,8,
7/5>2[8:1],4,5/6,7,{16}8-4b[8:1],1,7,1,{8}8,2,
5/3,2,{16}3,4,{8}2,{16}5-1[8:1],6,{8}4-8[8:1],5,4,
7,6,3/8-3[8:1],{16}2x,1x,{8}8x<5[8:1],7,{16}8/4x,3x,2x,1x,
{8}6b/8x>3[8:1],1,6/8x-5[8:1],7,{16}8/4x-8b[8:1],3x,{8}2x,4/7,6,
1/7,2,{16}8-4[8:1],1,{8}7,8/2-5b[8:1],3,2/6,7,
6/4,3,7/2-5[8:1],{16}1-6b[8:1],8,{8}2,1,4,7,
6/3,4,3/5-8[8:1],{16}5-2b[8:1],4,{8}5,5,{16}7x,6x,5x,4x,
{8}3x/2b-5[8:1],1,2/6,7,{16}6V84b[4:1],5,{8}7,3/6,2,
1,5,6/4-1[8:1],{16}4-7b[8:1],5,{8}4,4,2,6,
7/1>4[8:1],2,6/1-6[8:1],{16}7x,8x,{8}1xV35b[4:1],2,1/7,6,
6h[8:1],4,3/7-4b[8:1],{16}8-3[8:1],1,{8}7,8,{16}5x,6x,7x,8x,
{8}1x/2b,8,7/2-5[8:1],1,{16}2/8x-4[8:1],7x,{8}6x,{16}3x/8,2x,{8}1x,
5/2>5[8:1],1,{16}2/8x-4[8:1],7x,{8}6x,{16}3xV15b[4:1],2x,{8}1x,3,7,
8<5[8:1],7,8/3,2,{16}4b/3b,,,7/8,,,{8}1/2,
8-6[8:1],1-3[8:1],8w4b[4:1],1,{2}8bx,
{16}5,4,5,4,5,3,5,3,5<8[8:1],2,{8}5,{16}1x,2x,3x,4x,
5x,8,4,8,4,7,4,7,4V28[4:1],6,4,6,,,,,5,
1x,5,1x,5s1[4:1],2,{8}5,{4}1<5[4:1],2h[8:1],
{16}1,4,2,5,3,6,2,7,1x,2x,3x,4x,1x,8x,7x,6x,
5x/1b,2,3,4,5/1,8,7,6,5/4,3,2,1,4/8,5,6,7,
1<5[4:1],2,3,4,{4}1,{16}4<8[4:1],3,2,1,{4}4,
{8}2>5[8:1],1,2/8,7,{16}3,2,1,8,4,5,6,7,
{8}8x/1bx,5x/4x,3x/2x-5[8:1],1x/8x,2x/7x<4[8:1],8,{16}4/7,3,2,1,
5bx,2x,5x,2x,5,3,5,3,6p4b[4:1],4,6,4,,,,,3,
5x,3,5x,2,4,2,4,1q3[4:1],5,{8}2,{4}6h[8:1],
{16}7,4,7,4,8V64[4:1],3,{8}8,{4}4z8[4:1],3h[8:1],
{16}2,1x,2,1x,3,8,3,8,4x,3x,2x,1x,4x,5x,6x,7x,
1b,2,3,4,5/6,7,8,1,5<1[4:1],4,3,2,{4}5,
{16}3,2x,3,1x,3,8,3,7,4>1[8:1],6,3,6,{8}4,6,
7b/8,2b/1,3/4b>1[8:1],5b/6,{16}8,7,6,5,8,1,2,3,
{8}4x/5x,6/3,7/2,8/1,{16}1,8,2,7,3q5b[8:7],6q8[16:13],4,5,
,,,,,,,,,,,,,,,,{4}7b/4b,
{16}E5,B4,B3,E3,E2,B1,B8,E8,E7,B6,B5,E5,
{4}2b,{16}3,6,2,7,1h[16:3],,,6h[16:3],,,{8}3h[8:1],
{2}5b,{16}4/3,,,5/6,,,{8}7/8,
{4}2/1,{16}1-4[8:1],7,1,7-4[8:1],{8}1,,,3h[8:1],
{4}6b>4[4:1],4w8b[8:3],,,2bx,
{16}4,1,6,3,8,1,7,2,8,1,7,2,
{2}8b,{16}2/1,,,7/6,,,{8}3/4,
{1}5bh[8:1]/2bh[8:1],
E
