&title=Xevel
&artist=Tatsh
&first=0
&lv_5=14+
&des_5=am
&inote_5=
(185){4},{1},,{4},,{16},7b-4[2:3]/8b-5[2:3],
{1},{4},,,{16},,,1b-4[4:7]/2b-5[4:7],
{1},,{16},,,7b-4[2:3]/2b-5[2:3],
{1},{4},,,{16},,,6b-1[8:1]/3b-8[8:1],
,,,,,,,1h,1h,1h,1h,1h,1h,1h,
1h,8/2,,3,4,3,,3,5,3,,3,6,3,,5/4,
,3/6,,6,5,6,,6,4,6,,6,3,6,,5/4,
,3/6,,3,4,2,,6,5,7,,2,4,3,,3/4,
,3b-7[8:1]/4b-1[8:1],,,,,,,,7h,7h,7h,7h,7h,7h,7h,
7h,8,7,8,7,1,6,1,6,2,5,2,5,3,4,3,
4,2,1,2,1,3,8,3,8,4,7,4,7,5,6,5,
6,1,8,1,8,2,7,2,7,3,6,3,6,4,5,4,
5,4,8,3,7,2,6,1,5,8b-3[8:1]/4b-7[8:1],,3b/7b,,8b/4b,,,,3,
4,2,5,3,4,2,5,3,4,8,7,3,4,8,
7,5,6,4,7,5,6,4,7,5,6,2,1,5,6,2,
1,4,5,4,5,3,6,3,6,2,7,2,7,1,8,1,
8,8b-3[8:1]/1b-6[8:1],,,,8b/1b,,,,5b/4b,5b/4b,5b/4b,,3b/6b,,2b/7b,
,2,1,2,1,3,4,3,4,8,7,8,7,5,6,5,
6,3,6,3,6,2,5,2,5,1,4,1,4,8,3,8,
3,1,5,2,6,3,7,4,8,3,7,2,6,1,5,2,
6,4b,4,4b,4,4b,4,4,4,4b,4b,4b,4,4b,4b,4b,
4b,5b-2[2:3]/3b-6[2:3],{1},{4},,,{16},,,4-7[1:1]/6-3[1:1],
{1},{4},{16},,,5h,
5h,5h,5h,5h,5h,5h,
5h,4,5,3,5,2,5,1,5,8,5,7,5,6,5,7,
5,2,1,2,8,2,7,2,6,2,5,2,4,2,3,2,
4,3,4,2,4,1,4,8,4,7,4,6,4,5,4,6,
4,7,4,8,5,1,6,2,7,2b/7b,{8},{16}1b/8b,{8},{16}2b/6b,
3b/7b,4b/8b-2[8:1],,2,,6/8-6[8:1],,7,,2/8-2[8:1],,1,,6/8-6[8:1],,7,
,2/8-2[8:1],,1,,6/8-6[8:1],,7,,2/8-2[8:1],,1,,6/8,,,,{32}1/7,
6,5,4,{8},{32}2/8,3,4,5,{8},{32}7/8h[32:3],6,5,4,{8},{32}2/1h[32:3],3,4,5,{8},{16}1/7,
,6/5,,8/2,,4/3,,{48}8b,7b,6b,{16},{48}1b,2b,3b,{16},{48}7b,6b,5b,{16},{48}2b,3b,4b,
{16},5b/1b-7[8:1],,7,,3/1-3[8:1],,2,,7/1-7[8:1],,8,,3/1-3[8:1],,2,
,7/1-7[8:1],,8,,3/1-3[8:1],,2,,7/1-7[8:1],,8,,3/1,,,,{32}8/2,
3,4,5,{8},{32}7/1,6,5,4,{8},{32}2/1h[32:3],3,4,5,{8},{32}7/8h[32:3],6,5,4,{8},{16}8b/2b,
,4b/3b,,1b/7b,,6b/5b,,{48}1b,2b,3b,{16},{48}8b,7b,6b,{16},{48}2b,3b,4b,{16},{48}7b,6b,5b,
{16},1<6[8:1],,2,,4/1>4[8:1],,2,,6/1-6[8:1],,8,,4/1-4[8:1],,2,
,6/1v6[8:1],,8,,4/1v4[8:1],,2,,6/1V75[8:1],,8,,5/1,,,,{32}2/8h[32:3],
3,4,5,{8},{32}7/1h[32:3],6,5,4,{8},{32}1/6h[32:3],2,3,4,{8},{32}8/3h[32:3],7,6,5,{8},{16}5/7,
,7/1,,2/4,,2/8,,1b,1b,1b,1b,1b,1b,1b,
1b,2,3,2,3,2,3,2,3,2,3,2,3,2,3,2,
3,7,6,7,6,7,6,7,6,7,6,7,6,7,6,7,
6,7,5,8,6,1,7,2,8,3,1,4,2,3,1,2,
8,1,1,1,1,1,1,1,1,{32}1,2,3,4,5,6,7,8,1w5[8:1],2,3,4,5,6,
7,8,{16}1qq3[2:3],,,,3,,3,,,,4,,4,,,,,,5,
,,,6,,6,,,,7,,,,8qq5[2:1],
,,,5,,4,,,,3,,2,,,,8-4[8:3]/1-5[8:3],
,,,,,,,,,,,4,4,4,
4,4>1[8:1],,5,,6,,7<4[8:1],,8,,1,,2<7[8:1],,3,
,4,,5>2[8:1],,6,,7,,8,8,8,8,8,8,8,
8,8-4[8:1],,7,,6,,5-1[8:1],,4,,3,,2-6[8:1],,1,
,8,,7-3[8:1],,6,,5,,4,4,4,4,4,4,4,
4,3-8[8:1],,8,,3,,6-1[8:1],,1,,6,,2-5[8:1],,5,
,2,,7-4[8:1],,4,,7,,1,1,1,1,1,1,1,
1,2-5[8:1],1,3,1,2,,7-4[8:1],8,6,8,7,,1,1,1,
,3-8[8:1],4,2,4,3,,6-1[8:1],5,7,5,6,,4,4,4,
,2,6,2,6,1,5,1,5,8-4[8:1],,6-2[8:1],,8,,6,
,1,5,1,5,2,6,2,6,3-7[8:1],,1-5[8:1],,3,,1,
,4,8,4,8,5,1,5,1,6-2[8:1],,8-4[8:1],,6,,8,
,1b,1,1,1,1,1,1,1,1,1,1,1,1,1,1,
1,1b,2,1,3,1,4,1,5,1b,6b,1b,7b,1b,8b,1b,
1,1,1,1,1,1,1,1,1,8b/1b,{8},7b/5b,{16}4b/2b,2b/4b,
,5/1-6[8:1],,1,,1/5-2[8:1],,5,,5/8-3[8:1],,8,,8/4-7[8:1],,4,
,4/2-5[8:1],,2,,2/6-1[8:1],,6,,6/8-3[8:1],,8,,8/4,,,,{32}3b,
2,{16}1,{32}7b,6,{16}5,{32}3b,2,{16}1,{32}7b,6,{16}5,{32}4b,3,{16}2,{32}8b,7,{16}6,{32}4b,3,{16}2,{32}8b,7,
{16}6,{32}2b,3,4,5,2b,1,8,7,2b,3,4,5,2b,1,8,7,{48}3b,4b,5b,{16},{48}2b,3b,4b,{16},{48}6b,5b,4b,{16},{48}7b,6b,5b,
{16},8/2-5[8:1],,2,,2/8-3[8:1],,8,,8/4-7[8:1],,4,,4/6-1[8:1],,6,
,6/8-3[8:1],,8,,8/4-7[8:1],,4,,4/1-6[8:1],,1,,1/5,,,,{32}6b,
7,{16}8,{32}2b,3,{16}4,{32}6b,7,{16}8,{32}2b,3,{16}4,{32}5b,6,{16}7,{32}1b,2,{16}3,{32}5b,6,{16}7,{32}1b,2,
{16}3,{32}7b,6,5,4,7b,8,1,2,7b,6,5,4,7b,8,1,2,{48}6b,5b,4b,{16},{48}7b,6b,5b,{16},{48}3b,4b,5b,{16},{48}2b,3b,4b,
{16},1/8-4[8:1],,8,,8/7-3[8:1],,7,,7/6-2[8:1],,6,,6/5-1[8:1],,5,
,5/4-8[8:1],,4,,4/3-7[8:1],,3,,3/2-6[8:1],,2,,2/1,,,,{32}8b,
7,6,5,8b,1,2,3,8b,7,6,5,8b,1,2,3,7b,6,5,4,7b,8,1,2,7b,6,5,4,7b,8,
1,2,{16}3b/4b,,8b/5b,,2b/1b,,3b/6b,,1b,4b,3b,4b,5b,4b,7b,
4b,7,5,7,5,7,5,7,5,7,5,7,5,7,5,7,
5,2,4,2,4,2,4,2,4,2,4,2,4,2,4,2,
4,2,3,3,3,4,3,3,3,2,3,3,3,4,3,3,
3,2,2,2,2,2,2,2,2,1,1,1,1,1,1,1,
1,{32}2,3,4,5,6,7,8,1,2,3,4,5,6,7,8,1,2,3,4,5,6,7,8,1,2,3,4,5,6,7,
8,1,2/6,5,4,3,2,1,8,7,6,5,4,3,2,1,8,7,6,5,4,3,2,1,8,7,6,5,4,3,2,1,
8,7,{16}4,4,4,4,3,3,3,3,2,2,2,2,1,1,1,
1,2,6,3,7,4,8,5,1,6/2,1/5,8/4,3/7,{32}6/2-6[8:1],3,4,5,6,7/3,
8/4,1/5,{16}2b/6b,,,,8b/1b,,2b/7b,,7,5,6,4,5,3,4,
2,4,3,8,1,6,5,5,4,4,3,8,1,6,5,5,
4,1,1,8,2,1,1,8,2,8,8,7,1,8,8,7,
1,4,3,3,3,4,3,3,3,5,4,4,4,5,4,4,
4,5,4,5,4,6,5,6,5,7,6,7,6,8,7,8,
7,1,8,1,8,2,1,2,1,3,2,3,2,4,3,4,
3,5,2,5,2,4,1,4,1,3v6[8:1],,8-2[8:1],,3,,8,
,6,3,6,3,7,4,7,4,8-5[8:1],,5V71[8:1],,8,,1,
,4,7,4,7,3,6,3,6,2-5[8:1],,5V38[8:1],,2,,8,
,4,1,4,1,5,2,5,2,6-4[8:1],,3-7[8:1],,6,,3,
,5,4,5,4,6,3,6,3,7,2,7,2,8,1,8,
1,8b,7,6b/2b,3,4b/7b,6,5b/1b,2,3b/7b,6,5b/1b,2,3b/7b,6,5b/1b,
2b,{4},{16}5b-1[5.1892##0.1622]/4b-8[5.1892##0.1622],,{384}5h[8:31],4h[384:1487],
E
