&title=月が綺麗ねと言われたい!
&artist=カササギ_柿崎ユウタ
&first=-0.0133
&des=
&des_5=cj
&lv_5=13
&inote_5=(160){4},{8},B1/B2,{4}B1/B2,8-4[16:3],
{8}2,1,8,8pp2[16:3],,5-7[8:1],,1,
,8<5[16:3],,2,{4}4,4-8[16:3],
{8}6,5,4,4pp6[16:3],,3,3,3>8[16:3],
,6,6,5,{4}5,1-5[16:3],
{8}7,8,1,1qq7[16:3],,4-2[8:1],,8,
,1>4[16:3],,7,{4}5,5-1[16:3],
{8}3,4,5,5qq3[16:3],,6,6,6<1[16:3],
,3,3,4,{4}4,8-4[6:1],
{8}2,1,{4}5-7[6:1]/8-4[6:1],,8-4[6:1],
{8}2,1,{4}8-4[6:1]/5-8[6:1],,1-5[6:1],
{8}3,2,{4}1-5[6:1]/6-8[6:1],,1-5[6:1],
{8}3,2,{4}6/1bp8b[3:1],,7-3[6:1],
{8}1,8,{4}7-3[6:1]/4-6[6:1],,7-3[6:1],
{8}1,8,{4}7-3[6:1]/4-7[6:1],,8-4[6:1],
{8}2,1,{4}8-4[6:1]/5-1[6:1],,8-4[6:1],
{8}2,1,8q1[3:1],E6/B5,{4}E6/B5,{8}7>2[8:1],7,
4-1[8:1],4,7>2[8:1],7,5p1[8:1],5,{4}8>3[8:1],
{8}5<8[8:1],5,{4}5,{8}4,4h[8:15]/1-3[8:1],{4}1,
{8},7-5[8:1],{4}7,{8},1-3[8:1],{4}1,
{8},7-5[8:1],{4}7,{8},,2<7[8:1],2,
5-8[8:1],5,2<7[8:1],2,4q8[8:1],4,1<6[8:1],1,
4>1[8:1],4,{4}4,{8}5h[4:3],8-6[8:1],{4}8,
{8},2-4[8:1],{4}2,{8},7-5[8:1]*-1[8:1],{4}8/6,
{8},3pp5[24:5]*qq1[24:5],{4}4/2,{8},,1/7-5[8:1],6,
7/3-8[8:1],2,{4}3/5,{8}7,6,3/5,2,
5/3,6qq4[24:5],,3,2,1,8p4[8:1],5<8[8:1],
8,5,{4}4xp8[8:1]*>1[8:1],4b,{8}7/1,2,
7-5[8:1]/1-7[8:1],6,{4}1/7-3[8:1],{8},,4/6-1[8:1],7,
6/2-4[8:1],3,{4}2/8,{8}7,6,5/3,2,
5-7[8:1]/3-5[8:1],6,{4}3/5>5[12:7],{8}6,6h[4:3],,,,,,4,
3,2/4<8[4:1],,2,
,1p4[4:1]*<5[4:1],{4}1,{8},,5/3-1[8:1],2,
3/7-4[8:1],6,{4}7/1,{8}3,2,7/1,6,
1/7,2qq8[16:3],,7,6,5,4p8[8:1],1>4[8:1],
4,1,{4}8xp4[8:1]*<5[8:1],8b,{8}3/5,6,
3-1[8:1]/5-3[8:1],2,{4}5/3-7[8:1],{8},,8/2-5[8:1],3,
2/6-8[8:1],7,{4}6/4,{8}2,3,4/6,7,
4-2[8:1]/6-4[8:1],3,{4}6/4<4[12:7],{8}3,3h[4:3],,,,,,5,
6,6/5p4[4:1],,4>4[8:5],
,3qq4[8:3],{4}2,,,8p3[8:25]*<3[8:25],
B2,,,,B2,
,,,B2,
{8},,,,,,,B2,
{2}B2,
{4}1q6[1:2]*>6[1:2],B7,,,,B7,
,,,B7,
{8},7,,6h[8:1],
5h[8:1],4h[8:1],{4}3/B3,{8},,7-5[8:1],8-4[8:1],
7>5[4:1],8,{4}7,{8}1,2,3-6[8:1],3,
{4}3/8V62[4:1],{8}4,4,3,3,{4}2<7[8:1],
2/5,2<7[8:1],{8}2/5,5,{4}5/2<5[4:1],
2/5q3[4:1],4b,{8},,4/5-1[8:1],3,
5/2,3,{4}4/5v8[8:1],5/4,{8}6/5-1[8:1],7,
5/8,7,{4}6/5v2[8:1],6/5,{8}4/3,2/5,
{4}6/1,{8}1-5[8:1],7-3[8:1],1,7,1>4[8:1],7<4[8:1],
1,7,{4}8b-4[8:1],{8},,7/1-3[8:1],7,
8/1-5[8:1],8,7/1-3[8:1],7,8/1-5[8:1],8,{4}1/7,
{8}3/8-4[8:1],2,{4}8/1,{8}1,1h[8:5]/6-8[8:1],{4}6,
{8},2-4[8:1],{4}2,{8},1h[8:7]/6-8[8:1],{4}6,
{8},2-4[8:1],{4}2,{8},,1/7-5[8:1],1,
8/7-3[8:1],8,1/7-5[8:1],1,8/7,8,5<8[8:1],2>5[32:5],
5,2,{4}1,{8}8h[4:3],5-7[8:1],{4}5,
{8},1-3[8:1],{4}1,{8},5-7[8:1]*-3[8:1],{4}6/4,
{8},1q6[4:1]*p4[4:1],{4}2/8,,3b-6[2:7],
{8}E2,B1,,,{2}E1/B8/B1,
{8}E8,B8,,,{2}E1/B1/B8,
{8}E2,B1,,,{2}E1/B8/B1,
{8}E8,B8,,,{4}E1/B1/B8,2-5[4:1],
1,8-3[4:1],7,6-1[4:1],
5,4-6[8:1]*-2[8:1],4b,{8}7/1,3,
7/1,5,1/7,{16}2,8,1,7,{48}8b<3[8:5]*p3[8:5],E1,B1,B2,{96},{32}E3,{1},{8}3/1<6[8:1],
7,
1/4-1[8:1],2,{4}4/5,{8}7,6,3/5,2,
5/3,6qq5[24:5],,3,2,1,8p4[8:1],5<8[8:1],
8,5,{4}4xp8[8:1]*>1[8:1],4b,{8}7/1,2,
7>1[8:1]/1>3[8:1],6,{4}7/1-5[8:1],{8},,6/8>3[8:1],2,
8/5-8[8:1],7,{4}5/4,{8}7,6,5/3,2,
5<7[8:1]/3<5[8:1],6,{4}3/5>7[2:1],{8}6,6h[2:1],,,,,,7/8,
8/7,6-1[8:1]/1-5[8:1],,6/1,
,4/3,{16}6,5,{8}7,4b,4b,{4}4bw8[8:1],
B4f/E5/E4,{8}8/2v5[8:1],6,2/1,7,4-8[8:1],7-5[8:1],
4,7,,2,3,4,8<5[8:1],4>1[8:1],
8,4,{4}7-2[8:1]*-4[8:1],7b,{8}1>4[8:1]/4<7[8:1],8,
{4}4/1pp3pp5[8:3],8b,{8},,1/8<5[8:1],2,
8/4v7[8:1],2,{4}1/4,{8}3,4,5/8,3,
8<5[8:1]/5>2[8:1],2,{4}5p8>1p4[8:5],{8}1,1h[4:3],,,,,,5,
6,7-4[8:1]/2-5[8:1],,7/2,
,3/4,{16}6,5,{8}7,4b,4b,4b>1[8:1],7,
4/8q4[8:1],7,{4}8/6<1[8:1],{8}6/2,3,4-2[8:1],1-5[8:1],
4,1,,2,3,4,5>2[8:1],1<6[8:1],
5,1,{4}4-6[8:1]*-1[8:1],4b,{8}5<8[8:1]/8>3[8:1],1,
{4}5/8qq6qq4[8:3],2b,{8},,3/2<7[8:1],4,
2/5-8[8:1],6,{4}5/3,{8}6,7,8/3,6,
3>8[8:1]/8<5[8:1],5,{4}8p3<8[8:5],{8}4,4h[2:1],,,,,,2b/1b,
2b/1b,4b-8[8:1]/3b-7[8:1],,4b/3b,
,6b/5b,{16}2,1,{8}3,7,7h[8:5],,5,
1,3,{4}5w1[8:1],{2}5b,
E
