&title=Melodiniq
&artist=onoken a.k.a. owl*tree
&first=-0.96
&des="YOU"NITHM a.k.a. "Me"lodiniq
&lv_5=15
&inote_5=(193)
{16},,,,,,,,,,,,,,,,
{1}7-1-6-3-5[4:14]/2h[4:15],,,,
3qq5[4:6]/6h[4:3],7h[4:3],
8>8[4:6]*<8[4:6],,
{32}8b-5-7-4[4:14]*-3-1-4[4:5],1/7,2/6,3/5,4b,,,,
{16},,,,,,,,,,,,,,,,,,,,,,,,,,3,,3-8[4:2],,,,,,,,,,,,,,,,1-4[4:2],,,,,,,,,,,,,,,,
2V46-3[4:14]/6V82-7[4:5],,,,,,,,,,,,,,,,,,,,,,,,,,,,,,1,,1V72[4:6],,,,,,,,,,,,,,,,,,,,,,,,,,,,,,,,
4h[4:1],,,,1,,8<5[4:1],,,,3,,2h[4:1],,,,6,,,,1,,2,,3,,4,,5,,6,,
7h[4:1],,,,1>7[4:2],,,,8,,,,7<1[4:2],,,,8h[4:3],,,,,,,,,,,,2,,3,,
4h[4:1]/7,,,,6,,6-1[4:1],,,,4,,3,,,,,,6/2,,6<2[8:3]/2>6[8:3],,,,,,,,,,,,
{24}1,8,7,6,5,4,3,2,1,
{16}8,1,2,3,4,5,6,7,8h[4:2],,,,1,,2,,3,,4b-1[8:1]/7b-4[8:1],,,,,,,,
2-5[8:1],,3/5,,6,,7,,8-4[8:1],,1/2,,3h[4:1]/8,,,,5,6,7,8,1h[4:1],,,,5-2[8:1],,4/7,,5/6,,,,
8-6[8:1],,1/7,,2,,2,,3h[4:1],,,,4,2,4,2,5,1,6,2,7,3,8,4,1-5[8:1],,,,1/8,,,,
6-1[8:1],,7/4,,3,,3,,2-6[8:1],,3/8,,2/1h[4:1],,,,5>2[8:1]*<8[8:1],,,,5,,,,
3,7,3,7,4,6,4,6,3,2,1,8,4,3,2,1,5,6,7,8,4,5,6,7,
1,8,2,7,3,6,4,5,3,4,2,5,1,6,8,7,
1b-5[8:1],,,,7/1,,,,6-2[8:1]/3h[4:1],,,,6,,,,4-1[8:1]/8h[4:1],,,,4-7[8:1],,,,4/2,,,,
1,8,1,8,2h[8:1],,4,3,5h[8:1],,2,1,3h[8:1],,6,5,7h[8:1],,1,8,2-6[8:1]*-5[8:1],,,,2,,,,4-8[8:1]/7-4[8:1],,3,,4/7,,,,
1-3[8:1],,5,,1,,4-8[8:1],,2,,4,,3h[8:3],,,,,,1,2,1,2,1,2,8,3,7,4,6,3,5,2,
4<7[8:1],,3,,4,,1>4[8:1],,8,,1,,8h[4:1],,,,5,,4/7,,3/6,,2bv5[8:1]/5b-8[8:1],,,,2b/5b`Cf,,,,,,
6,,5,,4,,5,,4,,3,,5,,6h[4:1],,,,4,,4>8>4[4:2],,,,,,,,,,,,7,,6,,5,,2,,3,,4,,5h[8:9],,6h[4:4],,,,,,,,,,,,,,,,,,
3,,4,,5,,4,,5,,6,,4,,3h[4:1],,,,5,,5pp1[4:2],,,,,,,,,,,,2,,3,,4,,7,,6,,5,,2,,2h[8:9],,
E8,E7,E6,E5,E4,E3,E2,E1,
{12}E8,E7,E6,E5,E4,E3,
{16}1x<3[8:4],,,,2qq6[4:2],,,,,,,,,,4h[4:2],,,,,,,,7,,7>5[4:2],,,,6,,6pp1[4:2],,,,,,,,4,,4pp3[4:2],,,,8,,8h[4:2],,,,,,,,2h[4:1],,,,6h[8:3],,1,,8,,
7>5[8:4],,,,6pp2[4:2],,,,,,,,,,4h[4:2],,,,,,,,1,,1<3[4:2],,,,2,,2qq7[4:2],,,,,,,,4,,4q6[4:2],,,,8,,8,,,,,,,,,,C,,,,,,,,
2-5[8:1]/1,,8,,7,,6-3[8:1],,7,,8,,1h[4:1],,,,4-8[8:1],,5/7,,4,,6>3[8:1],,1/7,,6,,2,,1,,
7-4[8:1]/8,,1,,2,,3-6[8:1],,2,,1,,8h[4:1],,,,5-1[8:1],,4/2,,5,,3<6[8:1],,8/2,,3,,7,,
8,8,
2-5[8:1],,2,,8-3[8:1],,8,,6-2[8:1],,6,,4,,5,5,
3,4,2,5,1,6,8,7,
{32}1,2,3,4,5,6,7,8,1,2,3,4,5,6,7,8,1-5[4:2]b,,,,,,,,,,,,,,,,,,,,,,,,,,,,,,,,,
(196)
{16}2b-5-2[4:2]/1b-6[8:1],,,,,,,,7,,7h[4:1],,,,1,,
{24}6,,6,,6,,3,,4,,3,,2/5,,,1,8,1,8h[8:1],,,
{16}4,4,7-4-7[4:2],,3,,2,,1,,8,,1h[4:1],,,,5,5,2,,3/7,,6,5,6,5,
{24}8V64[4:1],,8,,8,,1,,,,,,
{16}3h[4:1],,,,8,2,8,2,
{24}7,,1,,5,,
{16}3,4,3,4,
{24}2,,8,,4,,
{16}6h[8:1],,4,4,
{24}5,,3,,7,,
1,8,1,8,1,8,
2>6[4:1],,,,,,6>2[4:1],,,,,,7,,,7h[4:1],,,,,,1,,,
1/6,,,7,8,7,8h[4:1],,,,,,5,1,5,1,5,1,5,,,,,,
{16}2b-7[8:1]/6b-3-6[4:2],,,,,,,,8,,8h[4:1],,,,4,,
{24}1,4,1,,1,,6,,5,,6,,4/7,,,8,1,8,1h[8:1],,,
{16}5,,2-5-2[4:2],,6,,7,,8,,1,,8h[4:1],,,,
3,3,5,4,5h[8:1],,2,6,2,6,
{24}1V35[4:1],,1,,1,,8,,,,,,
{16}6h[4:1],,,,1,7,1,7,
{24}2,,8,,4,,
{16}6,5,6,5,
{24}7,,1,,5,,
{16}3h[4:1],,,,
{24}7,,7,,7,,3,,4,,3,,5/2,,,1,8,1,8qq3[4:2],,,,,,,,,,,,,,,,,,4bw8[4:2],,,,,,,,,,,,,,,,,,,,,,,,
(206)
{16}3,,,,3,,,,3,,,,3,,,,7-5[8:1]/3,,,,3,,,,3/4-8[8:1],,,,3,,,,
2,1,2,1,3,4,5,6,1,5,1,5,8,7,6,5,
4/3,2,1,8,7/6,8,1,2,3/4,2,1,8,7/6,8,1,2,
(209)
{16}5h[8:1],,,,5h[8:1],,,,5h[8:1],,,,5h[8:1],,,,4-8[8:1]/5h[8:1],,,,5h[8:1],,,,1-3[8:1]/5h[8:1],,,,5h[8:1],,,,
{16}6,4,6,4,7,3,7,3,6,2,6,2,5,1,5,1,
{24}4,3,2,1,8,7,3,2,1,8,7,6,2,1,8,7,6,5,
{16}3,4,3,4,
(212)
{16}2-6[8:1],,,,2/1,,,,7-4[8:1],,8,,7,,1,,1-5[8:1],,,,1/8,,,,6-3[8:1],,4,,6,,2,,
(215)
{16}1,5,1,5,2,6,2,6,3,7,3,7,4,8,4,8,
5,4,3,2,1/8,2,3,4,5/6,7,8,1,2/3,1,8,7,
(218)
{16}5,6,5,6,4,5,4,5,3,4,2,5,1,6,8,7,
1,6,1,5,1,4,1,3,2,1,2,8,2,7,2,6,
(221)
{16}3,7,4,8,5,1,6,2,5,1,4,8,3,7,2,6,
{24}1,8,7,6,5,4,8,1,2,3,4,5,
1,,1,,1,,8,,8,,8,,
(224)
{16}5,,5-1[8:1],,,,7,,7h[4:1],,,,2-5[8:1],,2,,7-4[8:1],,7,,3>6<3[4:2],,,,5h[4:2],,,,,,,,
(227)
{16},,,,7<4[8:1],,7,,
{24}3,2,1,8,,,5<8[8:1],,,5,,,1,2,3,4,5,6,1,2,3,4,5,6,
{16}3,7,3,7,2,8,2,8,
(230)
{16}1,1,1,1,1,1,1,1,1,1,1,1,1h[8:3],,,,
{24}2,3,4,5,6,7,8/2,3,4,5,6,7,8/4,1/5,2/6,3/7,4/8,1/5,2-7[8:1]/6-3[8:1],,,,,,
2b/6b`Cf/E3/E7,,,,,,,,,,,,,,,,,,,,,,,,
{16}1h[4:1],,,,8,,8h[4:1],,,,1,,1-5[8:1]/8-4[8:1],,,,
(236)
{16},,,,6<3[4:6],,,,4,,4,,5,,4,,5,,5,,4,,5,,4h[8:1],,,,5,,5,,Ch[4:1],,,,
1h[4:1],,,,3,,3,,8/2,,8/2-6[8:1],,,,5,,5-1[8:1],,,,3,,3,,2-5[8:1]/7-4[8:1],,2/7,,
,,,,3>6[4:6],,,,5,,5,,4,,5,,4h[8:1],,,,5h[8:1],,,,4,,4,,5,,5,,Ch[4:1],,,,
8,,8,,7-3[8:1],,7,,1,,1bw5[8:5],,,,,,,,,,,,,,,,,,
2-6[4:2],,,,,,,,7h[8:1],,,,7h[8:1],,,,8v2[4:1],,,,1V35[4:2],,,,,,,,8h[8:1],,,,
7-3[4:2],,,,,,,,4h[8:1],,,,4h[8:1],,,,5v3[4:1],,,,2V46[4:2],,,,,,,,1h[4:2],,,,,,,,
7b<2[4:6],,,,1,,1,,8,,1,,8,,8,,1,,8,,1,,1,,8,,1,,Ch[4:1],,,,
4pp7[4:3],,,,8pp3[4:2]b,,,,,,,,,,,,,,,,4h[8:3]/8h[8:3],,,,,,,,
(240)
{16}8-3[8:1]b/4-7[8:1]b,,,,8b/4b`E8/Cf/E4,,,,
6/2,5/1,8/4,7/3,6/2,5,4,3,
1<6[8:1],,4,,1,,3-7[8:1],,8,,3,,1h[4:1],,,,
6,5,4,3,7,6,5,4,
8>3[8:1],,5,,8,,6-2[8:1],,1,,6,,8h[4:1],,,,3,7,3,7,
{24}2,1,2,1,2,1,
{16}3V57[4:1],,,,7s3[8:3],,,,
{24}8-4[8:1],,8,,8,,8,,,,,,
{16}5,6,7,8,4,5,6,7,8-3[8:1]/4-7[8:1],,,,4/8,,,,
{24}4,5,4,5,4,5,4,,,6,2,6,2,6,2,6,,,
{16}1-5[8:1],,1,,7-3[8:1],,7,,4-1[8:1],,4,,8w4[8:1],,,,8,,,,
2>6[4:1]/6,,1,,2/6p1[4:1],7,8,,8,7,6x,5,4-8[8:1],,2,,4,,3,,7,6,5,4,3-7[8:1]/8-3[8:1],,,,3/8,,,,
4,6,4,6,3h[8:1],,1,2,1,2,8h[8:1],,5,7,5,7,4,3,2,1,5,4,3,2,1-6[8:1]/5-1[8:1],,,,1/5,,,,
2,4,3,5,4,6,5,7,
2,1,3,8,4,7,5,6,
{24}4,,8h,,2,,6h,,8,,4h,,1,,5h,,3,,7h,,5,,1h,,
3,4,5,6b/7h[4:1],,,,,,2,3,4,5b/6h[4:1],,,,,,1,2,3,4b/5h[4:1],,,,,,3,,,
{16}2v5[8:1]/6v1[8:1],,,,2b-7[8:1]/6b-3[8:1],,,,2b/6b,,,,
4-8[8:1]/8,,,,7-3[8:1]/4,,6,,1q5[8:1]/7,,2,,1/4h[4:1],,,,
6-2[8:1],,6,,4-7[8:1],,4,,8-3[8:1],,8,,6h[4:1],,,,
{24}4,,,4,,,6,7,8,1,2,3,5,,,5,,,2,1,8,7,6,5,
2,,,2,,,4,5,6,7,8,1,2-7[8:1]/6-3[8:1],,,,,,2/6,,,,,,
{16}4,8,4,8,3,7,3,7,2,6,2,6,1,5,1,5,
3,4,2,6,5,7,3,4,1,6,5,8,3,4,3,4,
{24}2,1,8,7,6,5,4/2,1,8,7,6,5,4/8,1,2,3,4,5,6/8,1,2,3,4,5,
2,6,2,6,2,6,3,7,3,7,3,7,
{32}4,5,6,7,8,1,2,3,4z8[8:1]/5s1[8:1],,,,,,,,
(160)
{16}4b>5[4:15]/5b<4[4:15]`Cf/B1/B4/B5/B8/B2/B3/B6/B7,,,,,,,,,,,,,,,,,,,,,,,,,,,,,,,,
(120)
{16},,,,,,,,,,,,
(240)
{16},,,,,,,,,,,,,,,,,,,,,,,,,,,,,,,,
{16}7s3[8:44],,,,,,,,
(120)
{48},,,,,,,,2,,,,2,,,,1,,,,1,,,,8,,,,,8,,,,,,8,,,,,,,8,,,,,,
{16},8b,,,,,,,
E
