&title=Moondread
&artist=Kry.exe
&first=0.03
&lv_5=14
&des_5=Ai1aNe.
&inote_5=
(220){4},,,,{1}7xh[4:7]/5xh[8:15],
,{8}6xh[8:13],
5xh[8:13],{4},,,,,,,{1}2h[4:7]/4h[8:15],
,{8}3h[4:7],
4h[4:7],{4},,,,,,,{1}2bxh[4:7]/6bx-4-8z4<5-1[2:3],
{8},,,,,,,2x/1x,
{1}8xh[2:3]/3x-5-7-2-4v1[4:5],
{8},,,,,2xh[4:1]/7xh[4:1],{4},{1}6h[4:7]/3-7-5V31s5[2:3],
{8},,,,,,,{16}3x,4x,
{1}3xh[1:1],
{8}8b-4[8:1],{4},{8}2b-5b[8:1],{4},7b-3[8:1],
7b/1>4[4:1],4v6[4:1],7,7,
8<5[4:1],5v3[4:1],2,{8}2,2,
4/3,5,2v5[8:1],6,2,7,7-4[8:1],3,
7,2,1-5[8:1],4,1,7,{16}6x,5x,6x,5x,
{8}6x,7,7,2,2,6,{16}4,5,4,5,
{8}3,3,6,6,2,2,7,7,
{1}1bs5-1b[4:3],
Cf,
{4},,,B7/B6/B2/B3,
{16}1bq5[8:1],{8},{16}8,{4}1,{8}6,3/5,{4}3/5,
{16}2q6[8:1],{8},{16}1,{4}2,{8}7,6/5,{4}6/5,
{16}3-8[8:1],{8},{16}4,{4}3,{8}5,1/6,{4}6/1,
{16}7-4[8:1],{8},{16}8,{4}7,{8}3,4/2,{4}4/2,
{8}1-5[8:1],8,1-3[8:1],7,1,6,6>3[4:1],6,
3>8[4:1],3,8<5[4:1],8,{4},4,
{16}3/4p8[8:1],{8},{16}5,{4}4,{8}7,2/8,{4}8/2,
{16}7-3[8:1],{8},{16}1,{4}7-5-8-4[2:1],{2}2xh[2:1],
{4},3/4-6[8:1],2/4-8[8:1],4/1,
7/1-5-2-4[2:1],7,6,6,
6/5-3[8:1],6/5-1[8:1],5/7,2V85[2:1]/8V25[2:1],
,,,{8}5,4,
{16}3/6<1[8:1],{8},{16}5,{4}6,{8}2/7,3,8xh[8:5],{16}3x,4x,
{4}5x,5-1[8:1],{8}5,6xh[8:3],E1,E2,
E3,E4,E5,E6,E7,E8,E1,{16}E2,B2,
B3,B4,B5,B6,B7,B8,B1,B2,B3,B4,B5,B6,B7,B8,B1,B2,
{4}Cf/B3,{2},{4}4-8[8:1],
4/5,5-1[8:1],5/4,3-8[8:1],
3/4,6-1[8:1],6/5,{8}5/4,3,
{4}4/2,{8}4/5,6,{4}7/5,{8}4/5,3,
4/2,3,4/5,6,{4}7/5,{8}1/8,2,
{4}3/1,{8}8/1,7,{4}6/8,{8}1/8,2,
4/3,5,4/6,7,{4}8/1,2/7,
6/3,4/5,{8}6/5,4,{4}5/3,
4/2<7q4[4:3],{8}5b,5,6,6,5,5,
{4}6,5/4,6/5,4/5,
{8}3/4,5,6/4,3,4/2,1,{4}8/7,
6/5,4/3,2/5,{8}6/3,6,
4/7>2p5[4:3],4,{4}4b,3,3,
4,4/5,{8}4,5,3h[4:1],6,
6,4,7h[4:1],3,3,5,2h[4:1],4,
5,5,3/6,6/3,7/2,2/7,8/1-5[8:1],2/7,
{1}8b/Cf/1b>5p1<5q1b[2:15],
,,,,,,,{2}B6/B5,
{4}B4,E4,
{2},B4/B3,
{4}B5,E6,,B6/B3,
,B7,{2}B2,
{4}B8/B1,B2,B3,B4/B5,
{2},6>3[1:1],
{1}2<7[1:1],
{2}E5,C,
{24}1b/8b,7/2,6/3,5h[8:15]/4-1[8:5],{12},,,,,,,,,,,,,{4}E2,
E3,E4,
E5,C/E7,C/E8,C/E1,
C/E2,C/E3,C/E4,E5,
6x,6/5,6/5,5/4,
4/5,3/4,3/4,{8}3/4,4/5,
{4}5/6<1p5[4:3],4,4,3,
3,2,2/4,{8}3/5,3/5,
6/4V28[4:1],7,{4}8>4[4:1],{8}7,6,{4}5h[4:1],
{8}3,4,3h[8:1],5,4h[8:1],6,5h[8:1],7,
4/6V82[4:1],3,{4}2<6[4:1],{8}3,4,{4}5h[4:1],
{8}6h[8:1],4,5h[8:1],3h[8:1],4,3/5,3/5,4,
3/5,6,4,7,5,6,4,{16}5x,4x,
{8}3x,4,2,5,3,8,{16}4,7,4,7,
3,6,3,6,2,5,2,5,1,6,1,6,8,7,1,8,
{1}C,
{4}2b>4[8:1]/4b-8b[8:1],4/2-6[8:1],2/7,1/8-5b[8:1],
7/8-3[8:1],8/4,{8}8/2,2/8,{32}1/7,E2,B2,B3,E4f,E7,B6,B5,
{8}E5f,2x,7bx/5bx,4x,{4}3-5[8:1]/5-1b[8:1],3/5,
{8}4/8,4,3/7,7/3,2/1bx,5/4bx,{16}2x-5[8:1],4,3,5,
{4}2b,{8}4bx/7b-3[8:1],8,{4}2/7<4b[8:1],7/1>3b[8:1],
{8}1v6[8:1],5,1,7,{4}8b-6b[8:1]/5b-1b[8:1],5/8,
{8}4/7,3,6/4,2,5/1-4[8:1],1,6-2[8:1],7,
6b/5b,4,{4}8b/3b,{8}7/2,6/3,{32}1/8,2,3,4,5,6,7,8,
{4}1b/Cf,{16}2-5[8:1],4,3,4,{4}2,{16}7-3[8:1],5,6,4,
{4}7,{8}2/5,4/3,3/4,5/2,8/1,{16}1/8,7/2,
{4}3-8[8:1]/6-1[8:1],3/6,{16}2/7,3/6,{8}5/4,8b/1b-3b[8:1],7,
{4}1-5[8:1]/6-8[8:1],1/6,{8}3x/4x,1/8,{16}4-8[8:1],5,2,7,
{4}4b/Cf,1-4[8:1]/7-3b[8:1],1/7,{8}5/2,6,
5/3,7,{4}4b-8b[8:1]/2b-4[8:1],4/2-6[8:1],7/2<8b[8:1],
{8}2/5,5,6b/2b,2b/6b,{16}4,5,3,4,{8}1,{32}1,2,{16}3,
5,4,6,5,{8}7,{32}7,6,{16}5,3,4,1,8,{32}E2,B2,B3,E4f,E8,B7,B6,E6f,
{1}Cfh[4:7],
{4},,,8b,
{24}1/8,2,3,4,{12},{24}2,3,4,5,{12},{24}3,4,5,6,{12},{4}8,
{24}8/1,7,6,5,{12},{24}7,6,5,4,{12},{24}6,5,4,3,{12},{4}1,
{24}4/5,3,2,1,{12},{24}3,2,1,8,{12},{24}2,1,8,7x,{12},{4}5,
{16}4,5,{8}4,{16}6,5,{8}6,{16}3,4,{8}2,{16}6,5,{8}7,
(230){24}1/8,2,3,4,{12},{24}2,3,4,5,{12},{24}3,4,5,6,{12},{4}8b,
{24}1/2,8,7,6,{12},{24}8,7,6,5,{12},{24}7,6,5,4,{12},{4}2b,
{24}1/8,2,3,4,{12},{24}8,1,2,3,{12},{24}7,8,1,2xh[8:3],{3},{8}5,
5,{16}3,4,{8}2,2,6,{16}6,4,{8}7,
(245){24}1x/8x,2,3,4h[4:1],{12},{24}5,6,7,8h[4:1],{12},{24}1,2,3,4h[2:1],{3},{24}8x,
7,6,5h[4:1],{12},{24}4x,3,2,1h[4:1],{12},{24}8x,7,6,5h[8:3],{3},{24}1x,
2,3,4h[4:1],{12},{24}1x,8,7,6h[4:1],{12},{24}4x,3,2,1h[8:3],{3},{8}6,
6,{16}3,4,{8}2,2,5/4,4/5,{16}6,5,
(260){4}7bx-3[8:1],7/2b-5[8:1],2/8b-4[8:1],8/1,
6bx/3bx-6[8:1],3/5b-1[8:1],5/2b-7[8:1],2/8,
3bx/6bx-1[8:1],6/4b-8[8:1],4/7b-2[8:1],7/3,
{8}3,3,{16}6,5,{8}7,7,4/6,6/4,3/5,
(270){4}5bx/3bx-8[8:1],3/5b-1[8:1],5/2b-6[8:1],2/7b-4[8:1],
7/1b-5[8:1],8b/1b,{8}4x,5x,6x/3x,2x/7x,
1x/8x-4[8:1],8,1-5[8:1],1,7-3[8:1],7,(290)2,2,
1x/8x,1x/8x,{16}2x/7x,3,4,5x,8,7,6,5x,(300){24}1,2,3,4x,7,6,
5x,2,3,4x,8,7,6x,1bx,2bx,3bx,4bx,5bx,6bx,7bx,8bx,1bx,2bx,3bx,{64}4bx,A7f,{96}B7f,{192}5bx,Cf,{96},{64}B3f,A3f,
E
