&title=Pentiment
&artist=Nothing But Requiem with Museo
&first=0.026
&lv_7=14+
&des=sreCP
&inote_7=(222)
{1},
{4}4-8-5>2[8:7]/8,4/8h[4:3],,,
{32}D8,A7,D7,A6,,,,,,,,,,,,,,,,,,,,,,,,,,,,,
{4}3v6-4>1[8:7]/7,3/7h[4:3],,,
{32}D7,A6,D6,A5,,,,,,,,,,,,,,,,,,,,,,,,,,,,,
{4}6z2-7<4[8:7]/2,6/2h[4:3],,,
{32}D2,A1,D1,A8,,,,,,,,,,,,,,,,,,,,,,,,,,,,,
{4}1-5s1>3[8:7]/8,1/8h[4:3],,,
{32}D8,A7,D7,A6,,,,,,,,,,,,,,,,,,,,,,,,,,,,,
{8}8h[4:1]/1x,1,1x,7xh[4:1]/1,1,1,6h[4:1]/1,1,
{8}3x,5h[4:1]/3,3,3,4xh[4:1]/3,3x,3,3,
{8}4/5x,5,5x,6,6,6,7x,7,
{8}8,1,1x,1,2x/4,,,,
{24}7x,6x,7x,6x,7x,6x,7x,6x,7x,6x,7x,6x,7x,6x,7x,6x,7x,6x,7x,,,,,,
{24}2x,3x,2x,3x,2x,3x,2x,3x,2x,3x,2x,3x,2x,3x,2x,3x,2x,3x,2x,,,,,,
{8}8-5[8:1],,8/1-6[8:1],1,1-3[8:1],,1x,,
{8}8-6[8:1],,8-4[8:1],,8-2[8:1],,,,
{8}8h[8:3]/1b,2,3,4,1/7h[8:3],2,3,4,
{8}6h[8:3]/1,2,3,4,5h[8:3]/1,2,3,4,
{8}1/8,2,3,4,1/7,2,3,4,
{4}5-3[8:1],1-5[8:1],7-4[8:1],,
{8}8-6[8:1]/1b,2,8/3,4,1/5-7[8:1],2,5/3,4,
{8}8-6[8:1]/1,2,8/3,4,1/5-7[8:1],2,5/3,4,
{8}1/8,2,3,4,1/6,2,3,4,
{12}7^5[8:1],,7,,2-8[8:1],,2-4[8:1],,,,,,
{8}8h[8:1]/1b,2,8h[8:1]/3,4,1/7h[8:1],2,3/7h[8:1],4,
{8}6h[8:1]/1,2,6h[8:1]/3,4,5h[8:1]/1,2,5h[8:1]/3,4,
{8}1/8,8/2,3,4,1/7,7/2,3,4,
{4}5-3[8:1],1-5[8:1],7<4[8:1],,
{8}1/8,1/8,2/7,2/7,3/6,6h[8:3],,,
{8}1,1,28,28,37,37,46,46,
{8}5s1[4:1],,1-6-4[8:3],1,3-1[8:1],,3,,
{8}8/6,,,1/3,,2,2,,
{8}7b-5-8-4[8:3],,1-3[8:1],1,,,8,,
{8}8/1,,4/5-3-6-2[8:3],,1-7[8:1],1,,,
{8}1b-3-8-4[8:3],,7-5[8:1],7,,,8,,
{16}1>3[8:1]/8,,,,8-4-1-5[8:3],7,6,,8x,,,,,,,,
{8}7b-5-8-4[8:3],,1-3[8:1],1,,,8,,
{8}1/2,,5/6-4-7-3[8:3],,2-8[8:1],2,,,
{16}3b/6b,,,,4,5,2,7,4,5,2,7,4,5,1,8,
{16}1,6,1,6,1,6,1,6,1,6,1,6,1,6,,,
{16}2-4[8:1]/7,,1,,2/7-5[8:1],,8,,7,,1,2,3,,1,2,
{16}3,,1/2,3,4,,1/2,3,4,,1/3,4,5,,,,
{16}7-5[8:1]/2,,8,,7/2-4[8:1],,1,,2,,8,7,6,,8,7,
{16}6,,8/7,6,5,,7x/6x,5,4,,7/5,4,3,,,,
{8}1-5[8:1],1,7-3[8:1],7,2-6[8:1],2,7-4[8:1],7,
{8}8-3[8:1],8,6-2[8:1],6,4-8[8:1],4,1,1,
{8}28,27,28,27,38,17,38,27,
{24}1h[1:0]/6,8,7,6,5,4,3,2,1,8,,,7xh[1:0]/2x,8,1,2,3,4,5,6,7,8,,,
{8}B7,,,,B2,,,,
{8}B6,,B5,,B4,,B3,,
{8}E6,,,,E4,,,,
{8}A7,,A8,,A1,,A2,,
{8}E8/B8,,B1/E2,,E7/B7,,E3/B2,,
{8}B6/A6,,B3/A3,,E6/D6,,E4/D4,,
{8}Ch[1:1],,,,,,,,
{8}B7/B6/B2/B3,,,,,,,,
{8}5h[1:1],4,B5,6,C,3,B5,6,
{12}4x,5x,4x,2qq2[12:5]/7qq7[12:5],,,,,,,,,
{8}4h[1:1],5,B4,3,C,6,B4,3,
{12}5x,4x,5x,7pp6[12:5]/2pp3[12:5],,,,,,,,,
{8}1/2,,7,8,7-4[8:1],,7,,
{8}8/7,,2,1,2-5[8:1],,2,,
{8}1/2,,7-5[8:1],8,7,,2-4[8:1],4,
{8}2,,3-1[8:1],6,3,,7/8,,
{4}8h[1:2]/4,4,4,4,
{8}4,,4,,4,,4,4,
{4}3h[4:6],7,7,7,
{8}7,,6,6,
{16}4,5,4,5,4,5,4,5,
{2}4^2[4:1],6^4[4:1],8^6[4:1],2^8[4:1],
{2}4-1[3:1],7-4[3:1],2-7[3:1],5-2[3:1],
{16},,,,E1,B8,B7,E7,E2,B1/B2,B6/B5,E6,E3,B3,B4,E5,
{16}A1,A2,A3,A4,A5,A6,A7,A8,D2,D3,D4,D5,D6/C,,,,
{16}6b,4,6,1x,5,4,5,2x,6,5,6,2x,5,4,5,3x,
{16}6,3,6,1x,5x,4,5,8x,6,5,6,1x,6h[8:1],,3b,6,
{16}3x,5,3,8x,4,5,4,7x,3,4x,3,7x,4,5,4,6x,
{16}3x,6,3,8x,4,5,4,1x,3,4,3,8x,3h[8:1],,5x,,
{16}7,5x,6,2,4x,3,7,,2,4,3,7,5x,6,2,,
{8}78,4x,12,5,6/8x,4,13,,
{16}7,8,7,8,7,1x,7,1,7,2,7,2,7,3,7,3,
{16}6,4,6,4,6,2,6,2,6,4,6,4,6h[8:1],,,,
{16}6b,5,1,2,5,4,8,1,4,3,7,8,5,4,8,1,
{16}6,5,1,1x,5,4,8,8x,4,3,7,7x,5,4,6,3,
{16}8,1,5,4,7,8,4,3,1,2,6,5,8,1,5,4,
{16}7x,7,7,,6x,6,6,,5x,5,5,,4x,4,4,,
{16}3,4,3,6,5,6,3,4,3,6,5,6,3,5,3,6,
{16}4,6,4,7,3,7,3,8,2,8,2,1,,,1,,
{16}1b-5[8:1],,,,,,8-4[8:1],,,,,,6qq8[4:3]*p4[4:3],,,,
{1},
{8}2-4[8:1]/4,,2/6,,1-5[8:1]/5,,1,6,
{4}6-8[8:1],6-4[8:1],6-2[8:1],6,
{8}7-5[8:1]/5,,7/3,,8-4[8:1]/4,,8,3,
{4}3-1[8:1],3-5[8:1],3-7[8:1],3,
{8}1-5[8:1]/8,,1-3[8:1]/7,
,1/6,,1,1,
{4}2-6[8:1],4-8[8:1],7-3[8:1],1-5[8:1],
{4}1x-3[8:1]/8x-3[8:1],1x/8x,8x-6[8:1]/1x-6[8:1],8x/1x-3[8:1]*-4[8:1],
{8}1x-7[8:1]*-6[8:1],,1w5[8:1],,,,,
{16}7bx,1bx-5b[8:1],,,,1b,,,,,2bV41b[4:1],,4b,,1b-5-8b[4:1],,5bx,,
{8}6bx-4-7-3-8b[2:1],,,,,,,,
{16}7b-4b[8:1]/8b-3b[8:1],,,7b/8b,,,,,,7bV58b[4:1],,5b,,8b-4-1b[4:1],,4bx,
{16},1bx-3-8-4-7b[2:1],,,,,,,,,,,,,,,
{8}1,1,1,1,18,18,18,18,
{8}7,7,7,7,27,27,27,27,
{8}1,1,1,1,15,15,15,15,
{8}56,56,56,56,57,57,57,,
{8}6,6,3,3,56,56,34,34,
{8}B7/B6/4x,B7/B6/4x,B2/B3/5x,B2/B3/5x,B1/B8/E1/4,B1/B8/E1/4,B1/B8/E1/4,,
{24}2x/7x,3x/6x,,2x/7x,3x/6x,,2x/7x,3x/6x,,2x/7x,3x/6x,,2x/7x,3x/6x,,2x/7x,3x/6x,,2x/7x,3x/6x,,2x/7x,3x/6x,,
{24}1x/6x,2x/5x,,1x/6x,2x/5x,,1x/6x,2x/5x,,1x/6x,2x/5x,,1x/6x,2x/5x,,1x/6x,2x/5x,,1x/6x,2x/5x,,1x/6x,2x/5x,,
{12}1bx,,,5,3,7,1,3,5,7,1,3,
{12}7,1,5,7,3,1,5,3,1,7,5,2h[1:0],
{8}6h[1:0],5,4,3,5,4,3,2,4xqq8[8:5],,,,4x-8b[8:1],,,,
{1},
{4}6/E8,5/B8,4/B1,3/E2,
{8}2-4-1[4:1]/7,4,6,5,6-8[8:1],4-2[8:1],6x/2x-8[8:1],4,
{8}5,6,5,6V82[4:1],4,3,4-8[8:1],5,
{8}4V27[4:1],6,4,5-1-3[4:1],5,3-7[4:1],4h[8:1],,
{8}2-5[8:1],2-8[8:1],,,4-6[8:1],3^8[8:1],4,3-8-4-1[2:1],
{8}7,7,6,6,5,5,4,4,
{8}35,35,26,26,17,17,8,,
{24}E8/4,B8,B1,E2/5,B1,B8,E8/4,B8,B1,E2/5,B1,B8,E8/4,B8,B1,E2/5,B1,B8,E8/4,B8,B1,E2/5,B1,B8,
{24}E8/4,B8,B1,E2/6,B1,B8,E8/4,B8,B1,E2/6,,,4h[8:3],,,,,,5h[8:1],,,,,,
{24}E2/5,B1,B8,E8/4,B8,B1,E2/5,B1,B8,E8/4,B8,B1,E2/5,B1,B8,E8/4,B8,B1,E2/5,B1,B8,E8/4,B8,B1,
{24}E2/5,B1,B8,E8/3,B8,B1,E2/5,B1,B8,E8/3,,,5h[8:3],,,,,,4h[8:1],,,,,,
{24}E1/4,B1,B2,E3/5,B2,B1,E1/4,B1,B2,E3/6,B2,B1,E1/4,B1,B2,E3/5,B2,B1,E1/4,,,3/5,,,
{24}E1/5,B8,B7,E7/4,B7,B8,E1/5,B8,B7,E7/3,B7,B8,E1/5,B8,B7,E7/4,B7,B8,E1/5,,,6/4,,,
{24}8<4[4:1],7<3[4:1],6>2[4:1],5>1[4:1],,,8,,,,,,7<3[4:1],6>2[4:1],5>1[4:1],4>8[4:1],,,7-3-1-5[0.4054##0.6756]*-4-8-6[0.4054##0.6756],,,,,,
{1},
{8}B7/B2,,,,,,,,
{8}B6,,B3,,B5,,B4,,
{8}E5,,,,,,,,
{8}E6/A5/A4/E4,,,,,,B8,B1,
(210)
{8}B2/B6,,,,,,,,
{8}B6/B2/A6/A2,,,,B7/A7/B3/A3,,,,
(200)
{8}B8/A8/B4/A4,,,,,,,,
{8},,,,Ch[2:3]f/B7h[2:3]/B6/B2/B3h[2:3],,,,
{8},,,,,,,,
(222)
{32},,,,,,,,1bx,2x,7x,6x,1x,2x,,,,,,,,2bx,3x,8x,7x,2x,3x,8x,7x,2x,3x,,,,,,,,1bx,2x,7x,6x,
{32}1x,2x,7x,6x,1x,2x,,,,,,2x/7x,3x/6x,,,1x/6x,2x/5x,,,3x/7x,4x/6x,,,2x/6x,3x/5x,,,2x/5x,,,,
{32}1bx,2x,7x,6x,1x,2x,,,,,,,,2bx,3x,8x,7x,2x,3x,8x,7x,2x,3x,,,,,,,,1bx,2x,7x,6x,
{32}1x,2x,7x,6x,1x,2x,,,,2x/7x,3x/6x,
{32},,1x/5x,8x/4x,,,1x/5x,8x/4x,,,
{48}1x,8x,,1x,8x,,1x,8x,,
{16},,
,E
