&title=ALL☆NIGHTER!
&artist=Turbo; Moon Jelly
&first=0.067
&des_1=tsundere
&des_2=tsundere
&des_3=tsundere
&des_4=tsundere
&des_5=tsundere
&lv_5=13.9
&des_6=tsundere
&des_7=tsundere
&des=tsundere
&inote_5=(175)
{1},{2},{4},
{4}1b,
{8}6h[4:1],,3,,2,2,5,,7h[4:1],,4,,6,6,4,,
{8}3h[4:1],,4,,5,5,3,,2h[4:1],,6,,5,5,3,,
{8}4h[4:1],,5,,6,6,4,,3h[4:1],,7,,2,2,18,,
{16}3,4,2,,5,4,6,,3,4,1,,6,5,7,,{2}1bh[2:1],
{32}E5,E4,E3,E2,E1,E8,E7,E6,{4}E5f/B5/B4,
{8}26,2,4,5,3,2,7,6,3h[8:1],5,3h[8:1],7,3h[8:1],1,3h[8:1],4,
{8}73,7,5,4,6,7,2,3,6h[8:1],4,6h[8:1],2,6h[8:1],8,6h[8:1],5,
{8}45,3,5,6,2,2,7,7,16,1,27,2,36,3,45,4,
{24}6,5,6,5,,,3,4,3,4,,,7,5,6,5,,,2,4,3,4,,,
{16}47,,6,5,6,5,6,4,5,3,6,2,
{1}8xbV64>1v6[2:12]/1xb<4V28-6[2:12]b,,,,,,{2},{8}4x,5x,
{16}3x,5x,4x,6x,3x,7x,2x,,{1}B6/B3/B4h[4:3]/B5h[4:3]/E3/E7,
{8}2xb-6[8:1]/6xb,35,2,7,8v3-5[4:1],1,8,2,1-3v4[4:1],1,8,7,6,
{16}6,5,7,,{8}8^3[8:1],7,68,7,8^3[8:1],7,68,
{8}5-7[8:1],5,4-8[8:1],4,7xV15[4:1],7x,{16}2x,,,4x,,,{8}3x/6x,
{8}3,24,2,1,8,75,7,64,6,35,2,16,7,8,12,3,
{16}3,4,3,,6,5,7,,3,4,2,,6,5,8,,{4}2b,2,{32}E3,E4,E5,E6,E7,E8,E1,E2,
{4}E3f/A2/A3/D3,
{8}3xb/7xb-3[8:1],64,7,2,1v6-4[4:1],8,1,7,8-6v5[4:1],8,1,2,3,
{16}3,4,2,,{8}1^6[8:1],2,31,2,1^6[8:1],2,31,
{8}4-2[8:1],4,5-1[8:1],5,2xV84[4:1],2x,{16}7x,,,5x,,,{8}6x/3x,
{8}6,75,7,8,1,24,2,35,3,64,7,83,2,1,87,6,
{16}4,5,4,5,4,6,4,6,4,7,4,7,4,8,4,8,4,,,,3h/7h,,,,
{32}2,3,4,5,6,7,8,1,{4}2b/6b,
{16}26,,3,5,4,6,5,7,5,6,4,5,3,,6,,
{8}2h[8:1],4,2h[8:1],6,2h[8:1],8,{16}2,2,,,
{8}8h[8:1],3,8h[8:1],5,{16}7,4,6,3,5,2,4,,2,4,3h[8:1],,7,5,6h[8:1],,
{16}4,4,5,,36,,2,,
{16}73,,6,4,5,3,4,2,4,3,5,4,6,,3,,
{8}7h[8:1],5,7h[8:1],3,7h[8:1],1,78,16,
{16}2,5,3,4,2,1,3,8,4,7,5,6,4,6,3,6,
{4}2,2,{32}E3,E4,E5,E6,E7,E8,E1,E2,{8}E3/B2/B3,,8x,,
{4}3^1[8:1],4,5^7[8:1],4,3^1[8:1],4,5^7[8:1],4,
{4}4^2[8:1],5,6^8[8:1],5,4^2[8:1],{8}5,5,6,2,
{4}8^6[8:1],1,2^4[8:1],1,8^6[8:1],1,2^4[8:1],1,
{4}8^6[8:1]b,1,1<5[8:1]b,2,2<3[2:1]b,2h[2:1],,,
{8}18,2,3h[4:1],4,5,6,2,3,46,7,8h[4:1],1,2,3,7,6,35,
{8}2,1h[4:1],7,6,5,1,2,36,7,8h[4:1],2,3,4,8,7,46,
{8}3^1[4:1],3,8,7,6,5,5,34,2^8[4:1],2,7,6,5,4,4,
{8}2^4[8:1]b,2,8,8,1>4[8:1]b,1,7,7,8>6[2:1]b,8,{4}7h[2:1],,,
{4}6xp8p4[2:3],4,4,3,3,2,2,1,
{4}1xq1^4[2:3],5,5,6,6,7,7,8,
{1}8^7q6^5[4:7]*^1p2^3[4:7],,{4},{8}4x,4x,
{16}3x,5x,2x,6x,1x,7x,8x,,{1}E2/B2h[4:3]/B1/E6/B5h[4:3]/B6,
{8}2b-6[8:1]/6b,35,26,7,8v6-4[4:1],8,1,2,3,3,{16}3,4,2,,18,,
{16}7,5,6,3,5,4,7b,,12,,3,4,2,,1b/8b,,26,,3,4,2,6,4b,7,3,,
{16}1/8v3-5[4:1]b,,37,,8b,,,2b,,,1b,,
{8}1,6-8[8:1],6,1,2,3-1[8:1],3,8,7,6,15,2,3,4,5,
{16}2,4,3h[8:1],,7,5,6h[8:1],,1,4,3h[8:1],,8,5,6h[8:1],,,,
{4}1b,1,{32}1,2,3,4,5,6,7,8,{4}1b/5b,
{8}7b-3[8:1]/3b,64,73,2,1v3-5[4:1],1,8,7,6,6,{16}6,5,7,,81,,
{16}2,4,3,6,4,5,2b,,87,,6,5,7,,8b/1b,,73,,6,5,7,3,5b,2,6,,
{16}8/1v6-4[4:1]b,,62,,1b,,,7b,,,8b,,
{8}8,3-1[8:1],3,8,7,6-8[8:1],6,1,2,3,84,7,6,5,4,
{16}4,5,4,5,3,6,3,6,2,7,2,7,1,8,1,8,1,,26,,,,15,,,,
{32}1,2,3,4,5,6,7,8,1b/5b,,,,,,,,
{16}15,,2,5,3,6,4,7,4,6,3,5,2-4[8:1],4,1,,
{8}2-6[8:1],6,2,5,{16}4-1[8:1],,,,45,,6,,
{8}7-4[8:1],8,7,1,{16}3,4,2,5,1,6,8,7,
{16}1,8,2h[8:1],,7,8,6h[8:1],,
{16}3,5,4,6,3,7,2,8,1b,8,2,7,3,6,4,7,3,6,2,5,3,4,2,,15,,8,,6,5,6,,3,4,3,,
{16}6,5,7,,3,4,2,5,1,6,8,7,2,1,3,8,4,7,5,6,
{4}4b-8[8:1]*q1[8:1],4b,
{16}2,5,3,4,1s5[8:1]b*-5[8:1]b,,28,,1b,
E
