&title=RED ZONE
&artist=Tatsh & NAOKI
&first=0
&lv_4=13
&lv_5=14
&des=NaTsuYu
&inote_4=(165){1},,,,
{16}1x,8x,1x,8x,1x,,8x,1x,
{16},8x,1x,,8x,1x,8x,,
{8}1bx/8bxh[16:4],,6h[16:4],,4h[16:4],,2h[16:4],,
{16}7x,2x,7x,2x,8x,1x,8x,1x,
{16}7x,2x,7x,2x,1x/8x,,1x/8x,,
{8}8bx/1bxh[16:4],,3h[16:4],,5h[16:4],,7h[16:4],,
{16}1x,2x,3x,7x,6x,5x,2x,3x,
{16}4x,8x,7x,6x,4x/5x,,4x/5x,,
{8}4bx/5bxh[16:4],,3h[16:4],,7h[16:4],,1h[16:4],,
{16}8x,1x,2x,3x,4x,5x,6x,7x,
{16}8x,1x,2x,3x,4x/5x,,4x/5x,,
{8}5bx/4bxh[16:4],,6h[16:4],,2h[16:4],,8h[16:4],,
{8}1-5b[16:2],,1,8,7,6,5,4,
{8},,5,4,5,,{16}4,5,4,5,
{16},,4,5,4,,,5,
{16}4,,,5,,4,5,,
{8}A2,A1,A8,A7,B2,B1,B8,B7,
{16}A2,D3,A3,D4,A8,D8,A7,D7,
{16}A1,D2,A2,D3,A7,D7,A6,D6,
{16},,4,5,4,,,,
{16}5,,4,5,,4,,,
{16}4/5,,,,5,4,5,,
{16},,4,,5,4,,,
{16}A2,A1,A8,A7,B2,B1,B8,B7,
{16}A2,A1,A8,A7,E2/B1/B8/E8,,E4/B4/B5/E6,,
{8},4bx/5bx,,4bx/5bx,5,4,5,,
{8}E4/B3/B2/E2,,E6/B6/B7/E8,,2,,6,,
{8}E6/B6/B7/E8,,E4/B3/B2/E2,,7,,3,,
{8}E4/B3/B2/E2,,E6/B6/B7/E8,,2,,6,,
{8}B6/B7/E7,B1/B4/B5/B8/C,B3/B2/E3,,7,3,7,,
{8}E7/B7/B8/E1,,E5/B4/B3/E3,,6,,2,,
{8}E1/B1/B2/E3,,E7/B6/B5/E5,,3,,7,,
{8}E7/B7/B8/E1,,E5/B4/B3/E3,,6,,2,,
{8}B2/B1/E1/E2/E3,B7/B4/B3/B8/C/E4/E8,B5/B6/E5/E6/E7,,7,3,7,,
{16}2,1,,,2,1,,,
{16}2,1,,,2-6b[16:2],1,,,
{16}8-4b[16:2],,,,1-5b[16:2],,,,
{16}7-3b[16:2],,,,2,,,,
{16}6,5,,,6,5,,,
{16}6,5,,,6<1b[16:2],5,,,
{16}4p8b[16:2],,,,5q1b[16:2],,,,
{16}3>8b[16:2],,,,6,,,,
{16}7,8,,,4,3,,,
{16}7,8,,,4-8b[16:2],3,,,
{8}2s6b[16:2],,7z3b[16:2],,1-5b[16:2],,8bw4b[16:28],,
{8},,,,,,,,
{8},,,,,,,,
{8}1/7,,B1/B7,,2,6,3,5,
{8},,E2,E7,E3,E6,E4,E5,
{8}8/2,,B8/B2,,7,3,6,4,
{8},,E8,E3,E7,E4,E6,E5,
{8}2/6,,A1/A7,,2,6,3,5,
{8},,A2,A7,B3,B6,A4,A5,
{8}3/7,,A8/A2,,7,3,6,4,
{8},,A7,A2,B6,B3,A5,A4,
{8}5,4,5,,3bx/A7/B7/E7/E8/D7/D8,,6bx/A2/B2/E3/E2/D3/D2,,
{8}4,5,4,,6bx/A2/B2/E3/E2/D3/D2,,3bx/A7/B7/E7/E8/D7/D8,,
{8}5,4,5,,3bx/A7/B7/E7/E8/D7/D8,,6bx/A2/B2/E3/E2/D3/D2,,
{8}4,5,4,,6bx/A2/B2/E3/E2/D3/D2,4bx/5bx,3bx/A7/B7/E7/E8/D7/D8,,
{8}5,4,6,,8bx/A3/B3/E4/E3/D4/D3,,2bx/A7/B7/E7/E8/D7/D8,,
{8}4,5,3,,1bx/A6/B6/E6/E7/D6/D7,,7bx/A2/B2/E3/E2/D3/D2,,
{8}5,4,6,,8bx/A3/B3/E4/E3/D4/D3,,2bx/A7/B7/E7/E8/D7/D8,,
{8}4,5,3,,1bx/A6/B6/E6/E7/D6/D7,8bx,7bx/A2/B2/E3/E2/D3/D2,,
{16}3,4,,,3,4,,,
{16}3,4,,,3-7b[16:2],4,,,
{16}5-1b[16:2],,,,4-8b[16:2],,,,
{16}6-2b[16:2],,,,3,,,,
{16}7,8,,,7,8,,,
{16}7,8,,,7<4b[16:2],8,,,
{16}1q5b[16:2],,,,8p4b[16:2],,,,
{16}2>5b[16:2],,,,7,,,,
{16}6,5,,,1,2,,,
{16}6,5,,,1-5b[16:2],2,,,
{8}3z7b[16:2],,6s2b[16:2],,4-8b[16:2],,5w1b[16:28],,
{8},,,,,,,,
{8},,,,,,,,
{8},,,,,,,,
{8}3bxh[16:4],,7bxh[16:4],,1bxh[16:4],,5bxh[16:4],,
{8}4bxh[16:4],,6bxh[16:4],,2bxh[16:4],,8bxh[16:4],,
{8}2bxh[16:4],,6bxh[16:4],,3bxh[16:4],,7bxh[16:4],,
{8}1bxh[16:4],,5bxh[16:4],,4bxh[16:4],,8bxh[16:4],,
{8}4bxh[16:2],3bxh[16:2],2bxh[16:2],1bxh[16:2],5bxh[16:2],6bxh[16:2],7bxh[16:2],8bxh[16:2],
{8}3bxh[16:2],2bxh[16:2],1bxh[16:2],8bxh[16:2],6bxh[16:2],7bxh[16:2],8bxh[16:2],1bxh[16:2],
{8}4bxh[16:2],5bxh[16:2],6bxh[16:2],7bxh[16:2],5bxh[16:2],4bxh[16:2],3bxh[16:2],2bxh[16:2],
{8}1bxh[16:2],8bxh[16:2],7bxh[16:2],6bxh[16:2],5bxh[16:2],4bxh[16:2],3bxh[16:2],2bxh[16:2],
{8}1bx-5b[16:2],,1bx,,4bx/6bx,3bx,7bx,2bx,
{8}8bx-4b[16:2],,8bx,,3bx/5bx,6bx,2bx,7bx,
{8}1bh[16:16]/8bh[16:16],,,,,,,,
{8},,,,,,,,
&inote_5=(165){1},,,,
{16}1/8,1/8,1/8,1/8,1/8,,1/8,1/8,
{16},1/8,1/8,,1/8,1/8,1/8,,
{16}2,3,4,3,4,5,4,5,
{16}6,5,6,7,1b/8b,,1b/8b,,
{16}3,5,1,6,4,8,2,7,
{16}4,6,3,8,2,6,,7/3,
{16}7,6,5,6,5,4,5,4,
{16}3,4,3,2,8b/1b,,8b/1b,,
{16}7,8,1,2,7,8,1,2,
{16}1/8,,1/8,,{24}2/7,,2/7,,2/7,,
{16}2,3,4,3,4,5,4,5,
{16}6,5,6,7,1b/8b,,1b/8b,,
{16}2,5,4,7,1,6,3,8,
{16}2,5,4,7,1,6,3,8,
{16}7,6,5,6,5,4,5,4,
{16}3,4,3,2,7b,8b,1b,2b,
{16},4/6,,,3/5,,8,1,
{16},8,7,6,4/5,3,2,1,
{16}D1,,,,A2,,B4,E6,
{16},,,,E7,B5,E4,,
{16},,B1,C,B5,,E7,E3,
{16},,,E1,,B4,B5,,
{16}2,3,4,5/3,4,5,6/4,5,
{16}6,7/5,6,7,1b/8b,,1b/8b,,
{16}1,8,2,8,1,7,2,8,
{16}1,7,1,8,2,7,1,8,
{16},,E5,B3,E2,,,,
{16}D1,,B7,E6,,,B5,,
{16}B1,,,,A7,A8,A1,A2,
{16},,E5,,B6,B3,,,
{16}7,6,5,4/6,5,4,3/5,4,
{16}3,2/4,3,2,8b/1b,,8b/1b,,
{16}4/5,,,,,,,,
{16}4,5,3,6,2,7,1,8,
{16}1-5[16:2],8,7,,1<5[16:2],,,,
{16}1s5[16:2],,2,,1,,,,
{16}8-4[16:2],1,2,,8>4[16:2],,,,
{16}8z4[16:2],,7,,8,,,,
{16}1-5[16:2],8,7,,1<5[16:2],,,,
{16}1s5[16:2],,2,,1,,,,
{16}8-4[16:2],1,2,3,4/8>4[16:2],,,,
{16}8z4[16:2],,7,,8,,,,
{16}1p4[16:2],7,6,,1v6[16:2],,,,
{16}1-3-5[16:2],,3,,1,,,,
{16}8q5[16:2],2,3,,8v3[16:2],,,,
{16}8-6-4[16:2],,6,,8,,,,
{16}1p4[16:2],7,6,,1v6[16:2],,,,
{16}1-3-5[16:2],,3,,1,,,,
{16}8q5[16:2],2,3,4,5/8v3[16:2],,,,
{16}8-6-4[16:2],,6,,8,,,,
{16}8-4[16:2],,1,,2/8,,3,5,
{16},2/6,,1,7,,8,,
{32}1bx,2bx,3bxh[32:8],,,,,,8bx,1bx,2bxh[32:8],,,,,,
{32}7bx,8bx,1bxh[32:8],,,,,,6bx,7bx,8bxh[32:4],,,,,,
{16}1-5[16:2],,8,,7/1,,6,4,
{16},7/3,,8,2,,1,,
{16}7,6,5,8,7,6,1,8,
{16}7,2,1,8,3,2,1,,
{16}2-5[16:2],,1,,2/8,,6,4,
{16},3/7,,8,2,,1,,
{16}5,1,,2/6,,,4/8,,
{16}3/7,,,1/5,,2/6,,1h[16:24]/5h[16:24],
{16},,,,,,,,
{16},,,,,,,,
{16},,,,,,,,
{32}6bx,7bx,8bx,,,,2bx,3bx,4bx,,,,
{32}6bx,7bx,8bx,,
{16}2-6[16:2]/7-1[16:2],,,,2/7,,,,
{16}8v5[16:1],,4v1[16:1],,8,,4,,
{16}7-4[16:1],,8-3[16:1],,7,,8,,
{16}5-1[16:1],,6,,5,,7b,,
{16}7x-3[16:2]/2x-8[16:2],,,,7/2,,,,
{16}1v4[16:1],,5v8[16:1],,1,,5,,
{16}2-5[16:1],,1-6[16:1],,2,,1,,
{16}4-8[16:1],,3,,4,,2b,,
{16}2p6[16:2]/7>1[16:2],,,,2/7,,,,
{16}8<5[16:1],,4>1[16:1],,8,,4,,
{16}7q4[16:1],,8p3[16:1],,7,,8,,
{16}5q2[16:1],,6,,5,,8b,,
{16}7q3[16:2]/2<8[16:2],,,,7/2,,,,
{16}1>4[16:1],,5<8[16:1],,1,,5,,
{16}2p5[16:1],,1q6[16:1],,2,,1,,
{16}4p7[16:1],,3,,4,,1b,,
{16}8-5[16:2],1,2/7,,8z4[16:2],,,,
{16}8<4[16:2],,8,,8,,,,
{16}1-4[16:2],8,7/2,,1s5[16:2],,,,
{16}1>5[16:2],,1,,1,,,,
{16}8-5[16:2],1,2/7,,8z4[16:2],,,,
{16}8<4[16:2],,8,,8,,,,
{16}1-4[16:2],8,2,7,1s5[16:2],,,,
{16}1>5[16:2],,1,,1,,,,
{16}8-2-6[16:2],1,8,,2-6-4[16:2]/8,,,,
{16}2<4[16:2],,8,,2,,,,
{16}1-7-3[16:2],8,1,,7-3-5[16:2]/1,,,,
{16}7>5[16:2],,1,,7,,,,
{16}8-2-6[16:2],1,8,,2-6-4[16:2]/8,,,,
{16}2<4[16:2],,8,,2,,,,
{16}1-7-3[16:2],8,1,8,7-3-5[16:2]/1,,,,
{16}7>5[16:2],,1,,7,,,,
{16}3/5-1[16:2],,4/6,,7/5,,8,2/8,
{16},3/7,,4,4/6,,5,,
{32}3bx/5bx,4bx/6bx,5bxh[32:5]/7bxh[32:5],,,,,,6bx/4bx,5bx/3bx,4bxh[32:5]/2bxh[32:5],,,,,,
{32}3bx/5bx,4bx/6bx,5bxh[32:5]/7bxh[32:5],,,,,,6bx/4bx,5bx/3bx,4bxh[32:5]/2bxh[32:5],,,,,,
{16}6/4-8[16:2],,5/3,,2/4,,1,7/1,
{16},6/2,,5,5/3,,4,,
{16}3,2,1,4/8,3,2,1/5,4,
{16}3,2/6,5,4,3/7,6,5,4,
{16}3/5-1[16:2],,4/6,,7/5,,8,2/8,
{16},3/7,,4,4/6,,5,,
{16}1/5,1/5,,3/4,,,7/8,,
{16}1/2,,,5/6,,3/4,,1h[16:24]/5h[16:24],
{16},,,,,,,,
{16},,,,,,,,
{16},,,,,,,,
{32}6bx,7bx,8bx,,,,2bx,3bx,4bx>5[16:16],,,,
{32}6bx,7bx,8bx,,
{16},,,,,,,,
{16},,,,,,,,
{16}7,3,7,3,5,1,5,1,
{16}5,6,7,8,2,3,4,5,
{16}8,4,8,4,6,2,6,2,
{16}6,7,8,1,4,3,2,1,
{16}6,5,1/4,,3,4,5/8,,
{16}6,5,1/4,,3,4,5/8,,
{16}6,5,1/4,,3,4,5/8,,
{16}2/8,,1/7,,4/6,,3/5,,
{16}5bx/1,2,5bx/3,4,5/1bx,6,7/1bx,8,
{16}5bx/1,2,5bx/3,4,5/1bx,6,7/1bx,8,
{16}6,5,7,4,8,3,1,2,
{16}4,3,5,2,6,1,7,8,
{16}7,8,3/1,,2,1,8/6,,
{16}7,8,3/1,,2,1,8/6,,
{16}7,8,3/1,,2,1,8/6,,
{16}5/6,,3/4,,1/2,,7/8,,
{24}3b,4x,5x,,2b,3x,4xh[16:4],,1b,2x,3xh[48:4],,
{16},,2/A4f,,2/E6f,,2/A7f,,
{24}6b,5x,4x,,7b,6x,5xh[16:4],,8b,7x,6xh[48:4],,
{16},,7/A5f,,7/E4f,,7/A2f,,
{32}1b-7-3-5[16:12]/8b-2-6-4[16:12],2b/7b,3b/6b,4b/5b,,,,,
{32},,,,,,,,
