&title=ひとりじゃない
&artist=DEEN
&first=0
&des=TruffleShroom
&lv_5=12
&des_5=TruffleShroom
&demo_seek=50.4
&demo_len=21.6
&inote_5=
(131){4},{24},,,,,,,,,,,4,,,5,,,6,
,,{12}6/2,{24},,,,,,,2,,,,,,3,,,2,,,1,
,,{12}1/5,,,,3/1,{24},,,,5h[8:1],,,2h[8:1],,,,,,7/8,
,,,,,,,,{12}7/3,{24},,,,6/8,,,7,,,{12}8,
{24},1,,,,,{12}2,{24}3,2,,,{8}4/2,3,2,3,
4,,,4/1,,4,5,6,
7/8,,,7/5,,3,2,3,
{3}4/2,{12}1,,,1h[8:1],{24},2b,,,4h[8:1],,,5b,
,,{12}8h[8:1],{24},1b,,,,,,,,,{12}6h[8:3],{24},5,,,4,,,5,
,,{12}6/2,{24},4,,,5,,,5,,,{12}7h[8:1],{24},3,,,,,,4/2,
,,,,6,,,7,,,{12}8/4,{24},6h[8:1],,,,,,6/3h[8:5],,,{12}8,
{24},7,,,7,,,2,,,{12}2,{24},2/4,,,2/1,,,2,,,{12}3,
{24},1,,,2,,,4,,,{12}3/7,{24},3h[3:1]/2>5[0.6107##0.3053],,,{3}2,
{24},,,{8}6,6/1,7,6,6<1[24:5],4/7,5,
3,2,5h[24:11],4h[3:1],{24},,,,,,,,7h[2:1],,,5,
,,{12}6,{24},3,,,{3}3,{24},,,,,,,,,,,{8}3,
{24}2h[12:1],,,,,3,,,,3h[24:5],,4,,,7,,,6,
,,{12}7/3,{24},3,,,7,,,6,,,{12}8/4h[4:1],{24},3,,,1,,,5,
,,{12}4-7[6:1],{24},4,,,4,,,2-5[6:1],,,{12}2,{24},2,,,4-8[6:1],,,4,
,,{12}4,{24}3,,,3>6[24:5],,,,,,5h[4:1],,,,,,,,,,,,4,
,,3/1,,,4/2,,,{12}3h[8:3],{24},2,,,8,,,8,,,{12}7/3,
{24},6,,,3/5h[8:1],,,3,,,{12}5/1h[8:3],{24},3,,,2,,,5,,,,,,,,{8}6,
7,8h[8:1],,8/1,{24},,,,,2h[4:1],
,,{12}6h[2:1],{24},,,,,,,1b,,,{12}1b,{24},,,,,,,,,,,1h[12:1],
,7h[8:1],,,8,,,7,,,{12}8/6h[2:1],{24},7,,,8,,,1,
,,{12}1,{24},7h[4:1],{4},,,{16},{48},{12}3h[12:1],
{24},,,,5/4,,,4/3,,,{12}5/2,{24},6/1,,,{12}7h[12:1],8h[8:1],
,,{6}7b/8b,{24},,,,,4b-8[8:1],,,8b-3[8:1],,,3b-7[8:1],,,{12}7b<1[4:1],
{24},1b,,,,,,,,,,,{8}6/4,5h[24:7],{12}6,,7>2[4:1]*<4[4:1],
{24},3,,,,,,,,,,,{8}3,3,4/3h[8:1],5,
4,3/2h[3:1],{24},,,,,5<8[8:1],,,{12}8-4[8:1],{24},4>1[8:1],,,,{8}1-5[0.3817##0.3817],
{24}5,,,,,,,,,,,6,,,{12}2,{24},1,,,7/8h[8:1],,,6,
,,,{8}5/3h[3:1],6,4,,8/2h[3:1],1,6,
{24},,{12}6h[8:1],{24},8b,,,,,,,,1,,,8,,,7h[4:3],,,{12}4,
{24},2,,,,2b,,,3,,,2,,3,,,,4b/6,,,{6}5,
{12},,,,1-5[0.3817##0.229],5-7[8:1]*-3[8:1],{24},,,,,,,,,{8}1,
1,1,5,5/3h[8:1],5,6/8h[8:3],4-2-6-8[24:7],6,
4,5,5,1,2/8,5/7h[8:1],5,7/5,
2p2[8:1],2<6[8:1],{4}6>2[6:1],{8},8h[8:1],,8,
1/7,6,7/3,3,3/1,3h[8:1],1h[8:1],7h[8:1],
4b,5h[8:1],,6/4,{4}8b/2h[8:1],{8}2/6,4,
{4}5b/2h[8:1],{8}8,1,{4}1/8,7/3h[8:1],
{8}3,3,6/2,7,{12}5,2bh[24:35],{24},3,,,,,,,,,,,,,,,7<4p3>7[1.2977##1.145],
,,7h[8:1],,,,,,,{12}7,,7,
{24},7b,,,2,,,2h[8:1],,,,,,,,,,,,6/8,,,,,,4/7h[8:1],
,,4,,,4,,,{12}6/2,{24},,,,,,,1/2,,,,,,6,
,,{6}5h[8:1]/8h[8:1],{12},8/7,,,,{4}5,
{24},5,,,4,,,3,,,{12}4/2,{24},,,7,,8,{8}7,6/1,
4h[8:1],1h[8:1],,4/7h[8:3],,,{4}4,
{8}8,1,5,4,{24},,,,,3/6,,,,,,5/4h[8:1],
,,{12}8b,{24},2/1h[8:1],,,2b,,,2/3h[8:1],,,{12}2b,{24},5/6h[8:1],,,{6}4b,
E
