&title=Resolution
&artist=曲:ANCHOR/歌:皇城 セツナ(CV:八巻 アンナ)
&first=0
&des_4=鳩ホルダー
&des_5=Asunasa
&lv_5=14
&lv_6=1
&des=Asunasa
&inote_2=(125){4},
E
&inote_3=(125){4},
E
&inote_4=(190){4},,,,{1}6bx/4bxq5[4:5],
,6p4[4:5],
,2qq5[4:5],
,8h[1:1],
{8}1,1,,2/8,,3b/7b,{4},2,
1/2,{8}8,8,{4}1,
1/8,{8}7,7h[4:1],,8,{4}8,
6,7/8,{8}1,1,{4}8,
1/8,{8}2,2h[4:1],,1,{4}1,
2h[4:1],3h[4:1],4h[4:1],5,
7h[4:1],6h[4:1],5h[4:1],4,
3h[4:1],1h[4:1],8h[4:1],6h[4:1],
{8}5,5,,5/7,,1/8,,2/6,
{2}6b/2bh[8:7],{8}E5,{4},{8}6xh[8:9],
{4},4,{2}E5,
4h[8:7],{8}E5,{4},{8}7xh[8:9],
{4},4,{2}E5,
{4}4,5/6,4/5,3/4,
2/5,3/4,4/5,5/6,
{8}7,7,1,1,3,3,{4}5w1[2:1],
,,,2bx/8bx,
{8}2,1/3,,6,{4}5/7,{8}3,2/4,
,7,{4}6/8,{8}2,1/3,,6,
{4}5/7,{8}8,1/7,,4/5,,2/8,
2b/8b,{4},{8}3,{4}3h[4:1],1<3[8:5],
{8}Cf,{4},,,{8}2,
{4}1/2,{8}3/4,3/4,,5/6,,7/8,
,2/6,{4}6b/2bh[4:1],8h[4:1],6h[4:1],
4h[4:1],2,1/6,1b/6b,
{8}7,6/8,,3,{4}2/4,{8}6,5/7,
,2,{4}1/3,{8}7,6/8,,3,
{4}2/4,{8}1,2/8,,4/5,,1/7,
1b/7b,{4},{8}6,{4}6h[4:1],8>6[8:5],
{8}Cf,{4},,,{8}7,
{4}7/8,{8}5/6,5/6,,3/4,,1/2,
,4/8,{4}4b/8b,1/2,3/4,
5/6,7/8,1/2,1-5[8:1]/2-5[8:1],
{8},,,6,{4}5/6,7-4[8:1]/8-4[8:1],
{8},,,5,{4}5h[4:1],{8}6,6h[4:1],
,8,{4}8h[4:1],{8}1,1,,1b/2b,
,5b/6b,,3b/4b,,7b/8b,{4}7<8[4:3]/8>7[4:3],
{1},{4}7/8,
5/6,3/4,1/2,
{8}2,2,4,4,5,5,7,7,
{2}1h[2:1],8-3[8:1]*-5[8:1],
{1}Cf/B3/B4/B5,
,,,3h[1:1],
4h[1:1],
5h[1:1],
{2}6,4b/8b,
3<6[4:1],7-4[4:1],
{4}3h[4:1],4,{2}2/5,
6>3[4:1],2-5[4:1],
{4}6,5/6,4/5,3/4,
{2}5<8[4:1],2>5[4:1],
{4}6h[4:1],5,{2}4/7,
{4}7h[4:1],5,2h[4:1],4,
5-8[8:1],4-1[8:1],,{8}7,7bh[4:1],
,8,{4}8,1/6,{8}2,2h[4:1],
,1,{4}1,{8}3/8,{4},{8}7,
{2}7-2[4:1],3-6[4:1],
{4}7,8z4[2:1],{2},{4}3h[4:1],
2h[4:1],1h[4:1],8h[4:1],
7h[4:1],6h[4:1],5,4/5,
{2}3/4-8[8:1],6/5-1[8:1],
{4}2/8,3/4,5/6,1/8q1b[4:3],
{1}Cf,
,{8}2,
2,{4}1/3,{8}6,6,{4}5/7,
8h[4:1],7h[4:1],6h[4:1],5,
{8}3,3,{4}1/3,{8}6,6,{4}6/8,
{8}2,2,{4}2/4,{8}7,7,{4}5/7,
{8}8,8,2,2,6,6,{4}4pp8[4:3]*qq8[4:3],
{1},1b/7b,
,E3,
E7,
E4,
E6,
Ch[1:1],
{4},,,1bx/8bx,
{8}1/2,3/8,,5/6,{4}4/7,{8}3/4,2/5,
,7/8,{4}1/6,{8}1/2,3/8,,5/6,
{4}4/7,{8}8,1/7,,3/4,,4/8,
4b/8b,{4},{8}3,{4}3h[4:1],1<5[8:3],
{8}Cf,{4},,,{8}1,
{4}1,{8}2/4,2/4,,5/7,,1/8,
,2/6,{4}2b/6b,2/4,1/8,
5/7,4/5,2/6,3-8[8:1]/7v4[8:1],
{8},,,1/5,{4}1/5,2-5[8:1]/6v1[8:1],
{8},,,4,{4}4h[4:1],{8}3,3h[4:1],
,1,{4}1h[4:1],{8}8,8,,7b/8b,
,2b/4b,,5b/7b,,1b/2b,{4}1/2>7[2:1],
Cf/B4/B5,{2},{4}1/8,
2/3,4/5,6/7,1/8,
{8}7,7,5,5,3,3,1,1,
{2}8h[2:1],1w5[8:1],
{4}3b/7b,2,{8}8,8,{4}1/7,
6,7/8,{8}1,1,{4}2/8,
{8}3,3,{4}2/4,{8}6,6,{4}5/7,
8,1/7,2/6,3/5,
6,7/8,{8}1,1,{4}2/8,
3,1/2,{8}8,8,{4}1/7,
6h[4:1],8h[4:1],1h[4:1],3h[4:1],
{8}5,5,4,4,{4}6,5/6,
4b/7b-4[8:1],3,{8}2,2,{4}2/4,
1-5[8:1],6,{8}7,7,{4}5/7,
8v3[8:1],2,{8}1,1,{4}1/4,
2/3,3/4,5/6,4/7,
6-1[8:1],2-5[8:1],{8}8,8,{4}4/8,
3-8[8:1],7-4[8:1],{8}1,1,{4}1/5,
{8}7,7,5,5,6,6,3,3,
4,4,2,2,8,8,{4}1,
{1}3bv5b[4:7]/7bv1b[4:7],
E
&inote_5=(190){4},,,,{32}8/1b-3-5-7-1[2:7],
2/7,3/6,4/5,{8},,,,,,,,,,,,,,,{1}3h[4:7],
,{4}5/7h[4:3],
5,5,5,
5/3h[4:3],5,5,5,
5/6h[4:3],5,5,5,
{8}3/7,3/7,2/8,2/8,{16}1b,8,2,7,3,6,4,5,
{4}3h[4:1],7v4-6-8[4:1],{8}4,3,{4}2v5-3-8[4:1],
{8}8,7,6,5-7-1[4:1],8,1,2,3,
{4}4h[4:1],{8}8,7h[8:3],,,,6/2V46>2[8:5],
{1}2/6h[8:5],
{8}6/3h[4:1],7,{4}8,{8}4/6h[4:3],3,2,2-4v1[4:1],
{2},{4}E4/B3/B4,B1/E2/B2,
7/8,{8}6,6h[8:3],{4},{8}8,1,
{12}2,2,2,6,6,6,1,1,1,8,8,8,
{8}1/2,1/2,1-4[8:1]/2v3-5[8:1],8/3,1x/2x/E2f,{4},{8}3/4,
,1/6,8v5[8:1]/7v6-4[8:1],8/7,{2}8x/7x/E8f,
{8}6/5,8/3,1s5[8:1]/2v3-5[8:1],1/2,1x/2x/E2f,{4},{8}8,
1/7,2/6,8z4[8:1]/7v6-4[8:1],8/7,{4}8x/7x/E8f,{16}1,2,{8}3,
4x/5x,7/5,1/8,7/2,6/3,2/5,4/7,2x-4[8:1],
1x-5[8:1],2x,1x,8x-2[8:1],7x-3[8:1],8x-4[8:1],7x,8x,
7,7,6/3,6/3,{16}4,5,3,5,2,5,1h[8:5],5h[16:9],
{4},,,7b/1b-5[8:1],
{8}1/6,8-3[8:1],,4/8,{4}2-5[8:1],{8}2/6,7-4[8:1],
,1/7,{4}3b-6[8:1],{8}3/5,7b-2[8:1],,3/7,
{4}4>1[8:1],{8}4/6,8v5[8:1],,3/8<4[8:1],,2,
2h[8:3],{4},{8}8,7,6,{4}5/4>1pp5[8:5],
{8}8,8h[8:5],,,,,,8x,
1/2,3,4/5,6,7/8,1q5[4:1],,5V71[4:1],
,1>5[4:1],,5,,1,{4}1h[8:1],
{16}2,4,3,5,{4}4/6,1-5[8:1]/4<7[8:1],1b/4b-8[8:1],
{16}4x/7x,6,{8}5-2[8:1],,{16}1x/5x,2,{4}3-8[8:1],{16}3x/8x,7,{8}6-1[8:1],
,{16}4x/6x,3,{4}2-7[8:1],{16}2x/8x,7,{8}6-3[8:1],,{16}6/3x,2,
{4}1>4[8:1],{16}1x/7x,6,{8}5v8[8:1],,2/5<1[8:1],,3,
3h[8:3],{4},{8}5,6,7,{4}8/2<6pp3[2:1],
{8}5,5h[8:5],,,,,,5x,
3/4,2,1/8,7,5/6,4p8[4:1],,8V64[4:1],
,4>8[4:1],,8<4[4:1],,4,{4}4,
{8}8,8,1/7,8,{16}8x,1x,2x,3x,{4}4x-8[8:1]/8z4[8:1],
8b/4b,{8}2,1,{4}8v2[8:1]*v6[8:1],8s4[8:1]*z4[8:1],
8b,{8}3,5,5,4q1[8:1]/6p1[8:1],,4/6,
{4},{8}4/6,2,7/8,7/8>3[8:1],,8/7<4[8:1],
,7-3[8:1]/8-2[8:1],,7-5[8:1]/8-4[8:1],,7b/8b,,{32}E3,B3,{16}B4,
{8}6,6,6/5,6,6/4,6,6/3,6,
3/8-6[8:1],3,3/8-5[8:1],3,3/8-4[8:1],3,3/8,3,
{32}1b,2,3,4,5,6,7,8,1,2,3,4,5,6,7,8,1,2,3,4,5,6,7,8,1,2,3,4,5,6,7,8,
{16}1h[2:1],{2},{16}2,3,4,1,8,7,6,
{1}5b/1b-4-8-5[2:7]*-6-2-5[2:7],
,,,{8}E1,
B8,B7,E7,E3,B3,B4,E5,
E8,B7,B6,E6,E2,B2,B3,E4,
A8,A7,A6,A5,A4,A3,A2,A1,
8,7,6,5,{2}4h[8:1]/3h[8:1],
{4}2h[8:1]/3h[8:1],1-6[8:1]*-4[8:1],{32}1b,B1,Cf,B6/B4,{8},,,{4}6h[8:1]/7h[8:1],
8q3[4:1]*p5[4:1],{2}8b,
{4}3h[8:1]/4h[8:1],8-6-4[8:1]*-2-4[8:1],{32}8b/E1/E8,E7/E2f,{16}E6/E3,{8},,,{4}5h[8:1]/6h[8:1],
1-3-7[4:1]*-7-3[4:1],{2}1b,
{4}6h[2:1],2h[4:1],{32},3/7,4/8,1/5,{8}2h[8:1]/6h[8:1],{4},6/5h[2:1],
1h[4:1],{32},8/4,7/3,6/2,{8}5h[8:1]/1h[8:1],{4},4/6h[2:1],
4h[4:1],{32},5x/3x,4x/2x,3x/1x,{8},,,{4}5h[4:1],
7h[4:1],1h[4:1],3,
3/5h[2:1],2-4-6[8:1],{8},7,{4}7,
4/6h[2:1],7-5-3[8:1],{8},8,{4}8,
6/4h[2:1],3-5-7[8:1],{8},2,{4}2,
5/3h[2:1],2-4-6[8:1],{8},1,{4}1,
3/5h[2:1],6qq4-2[8:1],{8},7,{4}7,
4/6h[2:1],7qq5-3[8:1],{8},8,{4}8,
4-6[8:1]/3-7[8:1],3b/4b,3-1[8:1]/4-8[8:1],3b/4b,
{8}6,6,7,7,{16}8,2,8,2,{4}8h[4:1],
{32}1b,2,3,4,5,6,7,8,1,2,3,4,5,6,7,8,1,2,3,4,5,6,7,8,1,2,3,4,5,6,7,8,
1,2,3,4,5,6,7,8,1,2,3,4,5,6,7s3[16:5],8,{2}1-5-1[4:1],
{4},{8}6h[8:1],4h[8:1],5h[8:1],3h[8:1],6h[8:1],1h[8:1],
6,7,8,1-5[8:1],2-6[8:1],1,{4}2,
{8}3h[8:1],4,5h[8:1],4,2h[8:1],4,6h[8:1],4,
3/5,2/6,1/7,8p4[8:1]*q4[8:1],{2}7/1,
{16}2,1,3,8,4,7,5,6,7,6,8,5,1,2,4,3,
7b,6,5,4,1,2,3,4,{4}5h[4:1],Cf,
{8}3,4,B2/E3,6,5,B7/E7,3,4,
B2/E3,6,5,{32}B7,E7,{16},{8}3,4,{32}B2,E3,{16},{8}6,
{4}6-8-2[8:3],{8}2,2-4-7[8:3],,7,{4}7>1qq5[4:3],
{1}2xh[1:1],
4h[1:1],
3h[1:1],
7h[2:3],
{4}Cfh[2:1],{2},{4}7b/1-5b[8:1],
{16}1/6x,7,{8}8-4[8:1],,{16}3x/8,2,{4}1-6b[8:1],{16}1/5x,6,{8}7-4[8:1],
,{16}4x/7b,3,{4}2-5b[8:1],{16}2b/5x,6,{8}7-4[8:1],,{16}7/3,2,
{8}1x-3b[8:1],8x-6[8:1],1-5b[8:1],8-4[8:1],1-3[8:1],8<3b[8:1],1,8b,
{4},{16}1,2,3,4,5,6,7,8,{4}1>5qq1[8:5],
{8}6,6h[8:5],,,,,,4x,
5/6,7,1/8,2,3/4,5p1[4:1],,1V75[4:1],
,5>1[4:1],,1<5[4:1],,5,{4}5,
{8}1,1,2/8,8/2,{4}3x-8b[8:1]/7-4[8:1],3-6[8:1]/7-2b[8:1],
7/3,{8}8,8,{4}2q6b[8:1]/6q2[8:1],6>3b[8:1]/2<7[8:1],
6/2,{8}4,5,5,4p8b[8:1]/6q2[8:1],,6b/4b,
,4,4,2/6,1/7,1/7-3[8:1],,7/1-5b[8:1],
,1>3[8:1]/7q3[8:1],,1p5[8:1]/7<5[8:1],,1b/7b,{4},{8}3/7q3>8[2:1],
4,4,4,4,4,4,3x,
2xp6<1b[2:1],5,5,5,5,5,5,5,
{32}2b,3,4,5,6,7,8,1,2,3,4,5,6,7,8,1,2,3,4,5,6,7,8,1,2,3,4,5,6,7,8,1,
{4}2bh[4:1],{8}8,8,{16}1,2,3,4,8,7,6,5,
{8}3b,3,6,6,3h[8:1],{16}1,2,,7,{8}8-4[8:1],
,2-6[8:1],2,7-3[8:1],7,{16}4,4,,8,{8}8<5[8:1],
,2-7[8:1],2,6-1[8:1],6,{16}3,3,,8,{8}8,
{4}2h[4:1],{8}7-4[8:1],8,7,2,{16}2,3,4,5,
{8}6/7,8-4[8:1],8,2-5[8:1],2,{16}6,6,,3,{8}3,
5b/4b,2-5[8:1],1,2,{16}7-5-3[8:1],8,,8,{8}7,2x,
2x,7v4[8:1],8,7,{16}2-4-6[8:1],1,,1,{4}2,
{12}8x/7x,1xh,2,3h/7h,6,5h/2xh,3,4h/8h,7,6h/2h,3,4h,
{8}2b/6b,1,1,6/2,3/5,{16}4-8[8:1],5,,5,{8}4,
6x,6x,3/4,3/4,{16}6-1[8:1],5,,5,{8}6,3x,
8/2,8/2,7,6,{16}3-8[8:1],4,,4,{8}3,6x,
7,7,6/5,4/3,{16}2-5[8:1],1,,1,{8}2,6x,
8b,8/7,1,6,{16}5-1[8:1],2,,2,{8}5,3,
2/8,8/2,7,3,{16}4-8[8:1],7,,7,{8}4,6x,
7/1,2/6,3,5,{16}4-8[8:1],5,,5,{8}4,6x,
{16}1bh,7,2bx,8,3bh,5,4bx,6,2bh,7,1bx,8xh[16:1],{32},1bx/7x,6x/2bx,5x/3bx,{8}4bx,
{64}7b-5-1b[4:7],2xv3-5[64:111],
E
&inote_6=(125){4},
E
