&title=恋ひ恋ふ縁
&artist=Famishin/KOTOKO
&first=0
&lv_5=13
&des_5=Sean
&inote_5=
(144){4},{8},,,,,,2h[8:5],
3,4,5,,6h[8:3],5,4,
2,1,1,1h[4:1],{16},,B7,B6,{8}B5,3,
1/8,{16}B2,B3,{8}B4,6,8/1,{16}B8,B7,{8}B6,5,
1/7,2qq5[4:1],8,2/1,,6h[4:1],,7h[4:1],
,5qq8[4:1],2,5/4,,2,1,1,
8/2,7pp4[4:1],1,7/8,,2,2,4/3>8[8:1],
,7,6,5,{16},,2,4,{8}3,{16}7,5,
{8}6,3pp8[4:1],5,4/3,,7h[4:1],,6h[4:1],
,8pp5[4:1],3,8/1,,4,3,3,
2/4,1,8,5/7pp5[4:1],,6,5,4qq6[4:1],
,5,6,7-4[8:1],,2,{16}3x,3x,4x,4x,
{8}2-5[8:1],5-1[8:1],2,6,7-4[8:1],4-8[8:1],3,2,
2>5[8:1],1,8,7,6q7[4:1],5,4,3,
2x-4<6-8[4:1]*q8[4:1],,,,,E1/B8/B1,{16}E7,B6,{8}B5,
{16}B1,B2,E3,B3,{8}B4,C,E5,E6,E7,E8,
1pp3[8:1],3>1[8:1],1,5,6pp8[8:1],8<6[8:1],6,2,
4>1[8:1],5,6,7,8p7[4:1],1,2,3,
4xqq4[4:1]*pp4[4:1],,,,,C,E2,E3,
E4,E5,E6,E7,E8,E1,3qq2[8:1]*pp4[8:1],2,
{4}3,{8}6,7<3[4:1],,3>7[4:1],,7<3[4:1],
,3w7[4:1],,,,,,3,
{4}4>6[8:3],{8}7,6>2[4:1],,2<6[4:1],,6>2[4:1],
,2w6[4:1],,,,,5/4,3,
2/8,1-5[16:1],7,1/8b-4[16:1],,8/7b-3[16:1],,7/6bp5[4:1],
,4,,3bqq4[4:1],,5,6,7,
5v8[8:1],4,3<6[8:1],2,1,8,7,1h[4:1],
,8,1,1w5[4:1],{2}1,
3-1<8-6[2:7],5h[4:1],
B2,B7,
4h[8:3],B7,
B2,Ch[4:1],
{4}1pp1[4:1],{8}6,7,{4}8qq8[4:1],{8}2z6>1[2:1],3,
{4}2,{8}8,7,{4}6h[4:1],{8}1-5[8:1],5,
{4}1<6[4:1],6>3[4:1],3>7[4:1],7<3[4:1],
3>5[4:1],5>5b[4:1],{8},,,,4,
5,6,7,8,3/4,{4}1-5[16:1],
1b/8b-2[16:1],{8}8/4qq4[4:1]*qq4[4:1],3,{4}4pp4[4:1],7,
{8}1-5[8:1],8-6[8:1],1,8,3<6[8:1],8/1,{4}3,
8/2-6[8:1],{8}2/4>7[4:1],5,{4}4/7>4[4:1],C,
{8}6-2[8:1],2>4[8:1],6/4-8[8:1],5h[8:1],,,{4}1b,
8/2p1[16:3],{8}5pp5[4:1]*pp5[4:1],4,{4}5qq5[4:1],2,
{8}8-4[8:1],1-5[8:1],8,1,6h[4:1],3,2>6[4:1],7/1,
{4}2/6<2[4:1],2>6[4:1],6<2[4:1],2>6[4:1],
{8}6<4b[4:1],,,,,6/5,{4}8-4[16:1],
8b/1b-7[16:1],{8}7<4[16:1]/1>4[16:1],6,{2}7/1w5[16:1],
{8}8-4[16:1],1-3[16:1],8,1,6>3[16:1],8/1,{4}6,
1/7-3[8:1],{8}7/5<2[4:1],4,{4}5/2<5[4:1],C,
{8}3-7[8:1],7<5[8:1],3/5-1[8:1],4h[8:1],,,{4}8b,
7/1>3-5[8:1],{8}1/5,6,{4}7<5-3[8:1],{8}7/2,1,
{4}8>2-4[8:1],{8}8/6,7,{4}8qq5[4:1],8/1,
{8}2>5[16:1],2,8-4[16:1],8,5-1[16:1],5,6>3[16:1],6,
2,2,6,7/8,4,1/2,5,8/1,
{4}2p8[4:1]/6p4[4:1],{16},,,,,,,,5x,5x,4x,4x,
{8}7V15[4:1],7,4,3,2V48[4:1],2,7,6h[4:1],
,7,6pp4[4:1],5,6/4,1,2,3,
{4}3/4qq5[4:1],{8}5/4,7,{4}6pp5[4:1],{8}6/4,3,
{16},,2,2,{8}1-5[8:1],8,1/7-3[8:1],6,7/1,2,
1pp4[4:1],6h[16:1],6,7h[16:1],7,8h[16:1],8>6[8:3],1,
8/6,7,8,1,2,3,4,5,
2/7-4[8:1],{16}8,8,{8}7,1,7/2-5[8:1],{16}1,1,{8}2,8,
3/4h[8:1],1,6/5h[8:1],8,2/1h[8:1],5,7/8h[8:1],4,
5/4,{16}6,5,{8}7,1,{2}1-5[16:1]/8-2[16:1],
{8}4,5,6,7,8,3/4,{4}1-5[16:1],
1b/8b-2[16:1],{8}8/4qq4[4:1]*qq4[4:1],3,{4}4pp4[4:1],7,
{8}1-5[8:1],8-6[8:1],1,8,3<6[8:1],8/1,{4}3,
8/2-6[8:1],{8}2/4>7[4:1],5,{4}4/7>4[4:1],C,
{8}6-2[8:1],2>4[8:1],6/4-8[8:1],5h[8:1],,,{4}1b,
8/2p1[16:3],{8}5pp5[4:1]*pp5[4:1],4,{4}5qq5[4:1],2,
{8}8-4[8:1],1-5[8:1],8,1,6h[4:1],3,2>6[4:1],7/1,
{4}2/6<2[4:1],2>6[4:1],6<2[4:1],2>6[4:1],
{8}6<4b[4:1],,,,,6/5,{4}8-4[16:1],
{2}8b/1bh[2:1],{4}5bw1b[16:1],Cf,
{2}6h[4:1]/1h[4:1],{4}8h[8:1]/3h[8:1],{16}4x,4x,5x,5x,
{4}1/7-3[8:1],{8}7/5<2[4:1],4,{4}5/2<5[4:1],C,
{8}3-7[8:1],7<5[8:1],3/5-1[8:1],4h[8:1],,,{4}8b,
7/1qq4[4:1],{8}1/5,6,{4}7pp4[4:1],{8}7/3,2,
{4}1q3[4:1],{8}6,7,{4}8qq5[4:1],8/1,
{8}2>5[16:1],2,2/8-4[16:1],8,8/5-1[16:1],5,5/6>3[16:1],6,
2/6,2,6,7/8,4,1/2,5,8/1,
4/6,3pp8[4:1],5,3/4,,7h[4:1],,6h[4:1],
,8pp5[4:1],3,8/1,,3,4/2,5/3,
6/4,6qq1[4:1],4,6/5,,3,3,1/2>5[8:1],
,6,7,8/1,{16},,2,4,{8}3,{16}7,5,
{8}6,2qq5[4:1],8,1/2,,6h[4:1],,7h[4:1],
,5qq8[4:1],2,5/4,,2,3/1,4/2,
5/3,4,5,8/6qq8[4:1],,8,1,2pp8[4:1],
,A7,A6,A5,A4,A3,A2,1b,
,6pp5[16:3]/4qq5[16:3],Cf,6/4,
E
