&title=追逐月光
&artist=希爾露在現世人間,诗岸
&first=1.119999
&lv_5=14
&des_5=hiyori
&inote_5=
(120){4}8<4[4:1]*p4[4:1],{8},,,B1,B2,B3,
1>5[4:1]*q5[4:1],,,,,B8,B7,B6,
1<4[4:1]*p4[4:1],,,,,E2,E3,E4,
8>5[4:1]*q5[4:1],,,,,E8,E7,E6,
{16}1/8,2,7,3,6,4,4,5,5,4,6,3,7,2,8,1,
7,7,2,2,6,6,3,3>8[16:1],5h[16:3],,,3,{4}4h[4:1],
{16}3,3,5,5,2,2,6,6,1,5,2,6,3,7,4,8,
5,5,6,6,4,4,7,7,3,3,8,8,2,2,{8}C,
{16}8/1,7,2,6,3,5,5,4,4,5,3,6,2,7,1,8,
2,2,7,7,3,3,6,6<1[16:1],4h[16:3],,,6,{4}5h[4:1],
{16}6,6,4,4,7,7,3,3,8,4,7,3,6,2,5,1,
4,4,3,3,5,5,2,2,6,6,1,1,7,7,{8}2b,
{4}3/5h[4:3],{8}B3,B2,B1,B8,3,{16}6,4h[16:15],
{8}5,7,B4,B5,B6,B7,B8,7,
5/3h[4:3],B3,B5,B2,B4,C,6,{16}4,5h[16:15],
{8}3,2,B1,B7,B2,B8,C,2-5[16:1],
6-1[16:1],2,6,3-8[16:1],7-4[16:1],3,7,3q6[8:3],
2,3/1h[8:1],,2,3h[8:3],B8,B6,5,
4/6h[8:7],B5,B4,B3,B2,B1,B8,1p8[4:1],
7,1/8<1[16:5],7,6,Cf,,,6,
5/7h[4:1],4,{16}3,5,3,5,{8}3,5/4h[8:1],{16}6,4,6,4,
{8}6,4/5h[8:1],{16}4<7[16:1],6,{8}3>8[16:1],4,3,{16}5,3,5,3,
{8}5,5/4h[8:1],{16}6,4,6,4,{8}6,4/5h[8:1],{16}3,3,6,6,
2,2,7,7,1,1,8-4[16:1],8,{8}2-6[16:1],8,{16}2,5,5,3,
{8}3,2/6h[8:1],{16}4,5,4,5,{8}4/6,7/3h[8:1],{16}5,4,5,4,
{8}5/3,2/6,{16}7/3-8[16:1],7,{8}7-4[16:1],3,7,{16}2,8,2,8,
{8}2,3/6,{16}7-4[16:1],1,6,2,7,3,3,5,2-5[16:1],8,3,7,
2,6,6,4,1q4[2:1]*-6b[16:1],3,8,2,{4}1b,{8}E6,E7,
{4}8x-6[16:1],B1,B2/7x-5[16:1],B3,
B4/6xqq8[2:1],E4,E3,E2,
C/1x>3[16:1],B8,B7/2x>4[16:1],B6,
B5/3xp1[2:1],E6,E7,{8}E8,4/7-4[16:1],
{16}6,2,2/7,1,1-6[16:1],6,{8}2,1/3,3,{16}7,4,6,5,
6,4,5,4,6,3,{8}5,4/2,3/5,{16}4>1[16:1],5,3,6,
{8}4,7,{16}8<5[16:1],1,7,2,{8}8,3,{16}2,5,3,4,
3,6,5,6,3,2/5,{8}6/1,{4}2/7h[4:1],{8}3x,8x/4h[8:1],
{16}1b-6[16:1],3,7,5,1,4,4-7[16:1],5,{8}2,4/1,2,{16}5/1,5/1,
8-3[16:1],6,2,4,8,5,5-2[16:1],4,{8}7,5/7,8<4[16:1]*<4[16:1],{16}4-8[16:1]*-8[16:1],4,
{8}8,B2/B3/E3,1pp1[8:1],{16}5pp5[8:1],5,{8}1,5,3,{16}6x,5x,
{8}2b/4,7b/5,{16}1b-5b[16:1],7,2,6,{8}1b/B1f,7b,3x/6,1x/5h[8:1],
{16}8b-3[16:1],6,2,4,8,5,5-2[16:1],4,{8}7,5/8,{16}7v4[16:1],1,5,2,
7,3,3v8[16:1],5,1,6,3,7,{8}1bx/B6f,,,6/4,
7/3,8/2v5[16:1],3,2/8-4[16:1],7,8/1-5[16:1],2,1/7v4[16:1],
6,7/2,3qq3[8:1]*pp3[8:1],2,3b/B3f,,,3/5,
2/6,1/7v4[16:1],6,7/1-5[16:1],2,1/8-4[16:1],7,8/2,
2,7/3,6pp5[16:21]/3-5b[16:1],2,{2}3b,
{16},,,,,,,,,,,,,1>5[2:1],,1,
,,,,,,,,,,,,,5<1[2:1],,5,
,,{8}4,{16},3,,,,,,2V46[8:3],1,2,,1,
,,{8}8,{16},7,,,6/3,,,4/5h[4:1],,3,,2,
,4,3,6,,5,6,3,,5,4,7,,4,5,2,
,6/5,6,6/5,,3/4,3,3/4,,5/4,5/4,5/4,6,3h[8:1],,5,
,1/2,2,2,,8/7,7,7,2,1,3,8,4,7,5,6,
4,5,3,6,2,7,1,8,8,2,2,6,6,4,4,7,
7,8,8,6,6,1,1,5,5,2,2,4,4,3,3,6,
6,5,5,7,7,4,4,7h[16:5],,,,,1,2,3,5/4,
7,6,5,4,6,5,4,3,5,4,3,2,4,3,2,1/8,
2,3,7,6,1,2,8,7,2,3,7,6,3,4,6,5,
1h,7,3h,5,2h,6,4h,8,1h,5,2h,6,3h,7,4h,8,
2h,5,4h,6,3h,5,4h,6,2h,4,1h,7,2h,8,3h,5,
1h,7,3h,8,2h,5,4h,6,2h,5/2h,5/2h,6/3h,6/3h,7/4h,7/4h,{48}2xh,3x,4x,
{16}7,1h,{48}7x,6x,5x,2h,,,{16}8,{48}3xh,4x,5x,{16}7,2h,{48}6x,5x,4x,1h,,,{16}7,{48}1b,2,3,4,5,6,7,8,1,2,3,4,5bx/Cfh[8:9],{1},{16},{24},{16}B2/B3/E3/E7/B7/B6,
,,,,,,,,,4h[4:3]/B5,,,,B6,
,,,B7,,,,B8,,,,4/5h[4:3],,,,3,
,,,2,,,,1-5[16:1]*-5[16:1],,,,1b/B1f,,7,7,4/7,
,6/5,,7h[8:1]/4-8-2-5[16:3]*-8-2-5[16:3],,2,5,4,,6,,7-3-5-8[16:3]*-3-5-8[16:3],,8,4,7b,
,2b,,1V35b[16:1],6,2,5,1b/E2f,,6b,,7x/3,,8x/4h[8:1],,1b-6b[16:1],
3,7,5,1,4,4b-7b[16:1],5,2,,4/1,,2b>5b[16:1],8,4,7,2,
6,6b<1b[16:1],4,8,3,6,2,8bx/B3f,,B8/B7/E8,,B1/B2/E2,,8-5[16:1]*-5[16:1],,7,
,8/6-3[16:1]*-3[16:1],,,,6/1-6[16:1]*-6[16:1],,2,,1/3-8[16:1]*-8[16:1],,4,,3/5-2[16:1]*-2[16:1],,6,
,5/7-4[16:1]*-4[16:1],,8,,7/1p8[8:1]*p8[8:1],,2,,,,,,4-1[16:1]*-1[16:1],,3,
,4/2-7[16:1]*-7[16:1],,,,2/5-2[16:1]*-2[16:1],,6,,5/7-4[16:1]*-4[16:1],,8,,7/1-6[16:1]*-6[16:1],,2,
,1/3-8[16:1]*-8[16:1],,4,,3/5<4[16:3]*<4[16:3],,6,,,,,,,,3-8V24[16:3],
4,1,5,3,6,6,7,7-5-1-6[16:3],5,8,4,7,3,3,2,2-4-8-3[16:3],
4,1,5,2,6,6,7,7-4V68[16:3],2,5,3,7,1,1,2,2,
{32}2/6,3/7,4/8,5/1,6,7,8,1,2/6,3/7,4/8,5/1,6,7,8,1,{16}2/6h[4:1],2,{8}2,{16},7/3,{128}E3f/E7f,B7,B3,B8,B4,E1,E5,B1,B5,B2,{64}B6,
E
