&title=marenol
&artist=LeaF
&first=0.07
&des_5=IC²
&lv_5=14
&des=IC²
&inote_5=(140){4},,,,{64}3b-6-3[2:1]/2b-7-2[2:1],
1x/4x,8x/5x,7x/6x,{16},,,,,,,,,,,,,,,{2}C,
{16}6<1[8:1],4,,4h[16:3],{4}6,
3h[4:1],1<4[4:1],{8}3,3,{4}2h[4:1],
6h[4:1],8V24[4:1],{8}6,6,{4}7h[8:1],
5v2[8:1],5/7h[8:1],{8}8V64b[16:3],3,{4}8/2h[8:1],
{8}1b<6[8:1],5h[8:1],1,{16}5,5,7V13[8:1],5h[16:3],{8}7,,6,
8>3[8:1],4h[8:1],8,{16}4,4,2<6[8:1],4h[16:3],{8}2,,3,
2-6[8:1],8h[8:1],2,{16}7,7,4-8[8:1],6h[16:3],{8}4,,6,
{4}1h[8:1]/7h[8:1],2h[8:1]/6h[8:1],{2}3h[2:1]/5h[4:1],
{1}Cfh[4:3],
{16}3/1b-6-3[4:1],{8},{16}1,{4}4h[8:1],{8}4-1[8:1],1-4[8:1],{4}4/7h[8:1],
{16}5-7-2[16:3],{8},{16}3h[16:3],{4}5,{8}4-8[8:1],8-2[16:1],4/6h[16:1],6,
7-1-5[16:3],{16}2,2,{8}7,3h[16:1],4-8-2[16:3],{16}7,7,{8}4,6,
{32}5x,6x,7x,8xh[32:5],{8},{32}5x,4x,3x,2xh[32:5],{8},{32}4x,5x,6x,7xh[32:5],{8},{32}4xh[64:1],3xh[64:1],2xh[64:1],1bxh[32:5],{8},{16}6-1-4[16:3],
{8},{16}2h[16:3],{4}6,{8}3-7[8:1],7-1[16:1],{4}3/5h[16:1],
{16}5,5,2,2,{8}8-4-2[16:3],{16}6,6,{8}8,6h[16:1],{4}7h[4:1],
{16}2-7-4[4:1],{8},{16}2,{4}5h[8:1],{8}6-2[8:1],2-8[16:1],{4}6/4h[8:1],
{16}3-1-5[16:3],{8},{16}7h[16:3],{4}3,{2}7-3[8:1]*-3[8:1],
{1}1b-5[2:7],
E8/B8/B7,
E4/B3,
C,
{24}1x,8x,1x,8x,1x,8x,1x,8x,1x,8x,1x,8x,2,7,2,7,2,7,2,7,2,7,2,7,
3,6,3,6,3,6,3,6,3,6,3,6,4,5,4,5,4,5,4,5,4,5,4,5,
{48}4b,3,2,1,8,7,6,5,4,3,2,1,8,7,6,5,4,3,2,1,8,7,6,5,4,3,2,1,8,7,6,5,4,3,2,1,8,7,6,5,4,3,2,1,8,7,6,5,
{1}4/Ch[1:1],
{2},{8}6,5,{4}4h[4:1],
{2}C,{8}6,5,4,3h[8:1],
{2}C,{8}5,4,{4}3h[4:1],
{2}C,{8}4,3h[8:1],{4}5-1b[16:1],
,4h[4:1],{32}8x,7x,{48}6x,4h[48:1],{16},{12}4h[48:1],{96}8x,{48},{96}1x,{48},2x,4h[48:1],{16},{12}4h[48:1],
{4}8V62[8:1],{12}3-5-1-7[4:1],3h[48:1],3h[48:1],{2},{48}8x/2x,
7x/3x,6x/4x,5xh[16:3],{12},,,,,{48}2b,1x,8x,7x,6x,5x,{8}4xh[8:3],8,8h[8:1],
{48},7/3,6/2,5xh[16:3]/1xh[16:1],{6},{12}1-6-2-4[4:1],1h[48:1],1h[48:1],{2}4-8[16:1],
{48}1x/7x,2x/6x,3x/5x,4bxh[16:7],{12},,,,,{32}8x,7x,{48}6x,4h[48:1],{16},{12}4h[48:1],{96}8x,{48},{96}1x,{48},2x,4h[48:1],{16},{12}4h[48:1],
{4}8V62[8:1],{12}3-5-1-7[4:1],3h[48:1],3h[48:1],{2},5h[4:1],
{8}3h[1024:1],4h[1024:1],5h[1024:1],6h[1024:1],
{4}E4,B4,B5,{8}E6,Ch[8:1],
{2},{32}1bx,2,3,4,5,6,7,8,1,2,3,4h[32:5],{8},{2}Cf/B7/B8/E7/E8/B6/A7,
{32}8b,7,6,5,4,3,2,1,8,7,6,5h[32:5],{8},{2}Cf/B2/B1/E3/E2/B3/A2,
{32}3b,2,1,8,7,6,5,4,3,2,1,8h[32:5],{8},{2}Cf/B5/B4/E6/E5/B6/A5,
{32}6b,7,8,1,2,3,4,5,6,7,8,1h[32:5],{8},{1}B4/B5/E4/E5/B3/A4/Cfh[1:1],
{4}B7,{12}7bh[24:1]/1b-6-2-4[4:1],1h[24:1]/6h[16:1],5h[24:1]/1h[24:1],{2}1h[1024:1]/4h[24:1],
{4}5xh[8:1]/6xh[8:1],{24}7,8,7,8,{12}7,{8}1>4[32:3],5h[8:1],{32},6x,7x,8x,{8},{6}Cf/B7/B6/E3/B3/B2/E7,
{12}8-6-2-5[4:1]/2h[24:1],3h[24:1]/8h[24:1],8h[24:1]/4h[24:1],8h[1024:1]/5h[24:1],{2},{4}4xh[8:1]/3xh[8:1],
{24}2,1,2,1,{12}2,{24}4-8-2-5[4:1],6,4,6,{6}4,{12}7,7,
{4}6h[8:1],{24}7-1-5-3[48:11],5,7,5,7,5,{8}7,{4},{24}2x,3x,4x,
{4}5h[8:1]/6h[8:1],{24}7,1,7,1,{12}7,{24}5V71[16:3],3,5,3,5,{6},{24}2,3,4w8b[24:7],
{2},{8},,,B7h[8:1],{4}1xhb[4:1],
{8}8,{16}8,2,{8}8,8,{4}1,
1/2xh[4:1],{8}1,{16}1,3,{8}1,1,{4}2,
{8}2x>4[8:1],2,1,8,7<5[8:1],7,8,1,
{4}2h[8:1]/4hx[8:1],2h[8:1]/5h[8:1],2h[8:1]/6h[8:1],2h[8:1]/7h[8:1],
2/8xhb[4:1],{8}1,{16}1,7,{8}1,1,{4}8,
8/7xh[4:1],{8}8,{16}8,6,{8}8,8,{4}7,
{1}6xh[4:3]/8xh[1:1],
{48}6b,5,4,3,2,1,8,7,6,5,4,3,2,1,8,7,6,5,4,3,2,1,8,7,6/2b,3,4,5,6,7,8,1,2,3,4,5,6,7,8,1,2,3,4,5,6,7,8,1,
{5}2/6bhx[1024:1],{20}8h[1024:1],4>1b[4:1],{40},,,4,8h[1024:1],,,,,,,,{5}8h[1024:1],8h[1024:1],
1/7hb[1024:1],{20}7h[1024:1],1>4b[4:1],{40},,,1,7h[1024:1],,,,,,,,{5}7h[1024:1],7h[1024:1],
{8}5/6hb[1024:1],{40}4,{20},{40}6h[1024:1],,{8}3,{40}2,6h[1024:1],,,,{10}3,{40}6h[1024:1],2,{10},{20}1,6h[1024:1],{40},{8}8,
1/5hb[1024:1],{40}1,{20},{40}5h[1024:1],,{8}2,{40}2,5h[1024:1],,,,{10}3,{40}5h[1024:1],3,{10},{20}4,5h[1024:1],{40},{8}4,
{5}5/4bh[1024:1],{20}4h[1024:1],6V82b[16:5],{40},,,6,4h[1024:1],,,,,,,,{5}4h[1024:1],4h[1024:1],
1/3hb[1024:1],{20}3h[1024:1],8V64b[16:5],{40},,,8,3h[1024:1],,,,,,,,{5}3h[1024:1],3h[1024:1],
{8}4/2hb[1024:1],{40}5,{20},{40}2h[1024:1],,{8}6,{40}7,2h[1024:1],,,,{10}5,{40}2h[1024:1],6,{10},{20}7,2h[1024:1],{40},{8}8,
8/1hb[1024:1],{40}8,{20},{40}1h[1024:1],,{8}7,{40}7,1h[1024:1],,,,{10}6,{40}1h[1024:1],6,{10},{20}5,1h[1024:1],{40},{8}5,
{16}5hb[32:1],{8},{16}5h[32:1],{8}1h[8:1],5h[32:1],{16}2,6h[32:1],{8}3,{4}4h[4:1]/6h[32:1],
7hb[32:1],4h[8:1]/7h[32:1],{8}3/8h[32:1],2,{4}1h[8:1]/8h[32:1],
{16}8h[8:3]/1hb[32:1],{8},{16}1h[32:1],{8},1h[32:1],{16}7h[32:3],2h[32:1],{8},{4}8h[8:1]/2h[32:1],
8h[8:1]/3hb[32:1],7h[8:1]/3h[32:1],6h[8:1]/4h[32:1],5h[8:1]/4h[32:1],
{16}3h[8:3]/5bh[32:1],{8},{16}5h[32:1],{8},5h[32:1],{16}1,6h[32:1],{8}3,{4}2h[4:1]/6h[32:1],
7hb[32:1],4h[8:1]/7h[32:1],{8}2/8h[32:1],4,{4}3h[8:1]/8h[32:1],
{16}8h[8:3]/1hb[32:1],{8},{16}1h[32:1],{8},1h[32:1],{16}7,2h[32:1],{8}7,6/2h[32:1],5,
{4}5h[8:1]/3hb[32:1],6h[8:1]/3h[32:1],7h[8:1]/4h[32:1],8h[8:1]/4h[32:1],
{2}1b<5[8:3],{8}2,3,{4}3h[2:1],
,5h[4:1],{8}4>8[8:3],4,{4}6h[4:1],
{2},{4}1/6h[8:1],2/6h[8:1],
3/6h[8:1],6h[8:1]/4>1[4:1],{2}4/6h[4:1],
8>5[8:3],{8}7,6,{4}6h[2:1],
,4h[4:1],{8}5<1[8:3],5,{4}3h[4:1],
{2},{8}2h[8:1],6h[8:1],3h[8:1],5h[8:1],
{4}4h[4:3],6,7,8w4b[1:1],
{1}8b,
E
