&title=1N
&artist=1N6Fs
&first=0.05
&des=日本利用压电瓷砖将脚步转化为电能。这些瓷砖捕捉来自你脚步的动能。当你行走时,你的重量和动作会对瓷砖产生压力。瓷砖会轻微弯曲,从而产生机械应力。瓷砖内部的压电材料将这种应力转化为电能。每一步都会产生少量电荷,而数百万步结合在一起就能产生足够的电力来驱动 LED 灯、数字显示屏和传感器。在像涩谷车站这样繁忙的地方,每天大约有 240 万个脚步为这一系统作出贡献。这些电能可以被储存或立即使用,从而减少对传统电力来源的依赖,并支持可持续的城市基础设施。这种方法将日常运动转化为实用的可再生能源。
&lv_5=114514
&des_5=日本利用压电瓷砖将脚步转化为电能。这些瓷砖捕捉来自你脚步的动能。当你行走时,你的重量和动作会对瓷砖产生压力。瓷砖会轻微弯曲,从而产生机械应力。瓷砖内部的压电材料将这种应力转化为电能。每一步都会产生少量电荷,而数百万步结合在一起就能产生足够的电力来驱动 LED 灯、数字显示屏和传感器。在像涩谷车站这样繁忙的地方,每天大约有 240 万个脚步为这一系统作出贡献。这些电能可以被储存或立即使用,从而减少对传统电力来源的依赖,并支持可持续的城市基础设施。这种方法将日常运动转化为实用的可再生能源。
&inote_5=
(133){4},{16},,,,,,,,,,,,,5,
,,,5,,,,5,{32},,,,4,4,{16}5,5,5,
5,{64}1b,2,3,4,5,6,7,8,1b,2,3,4,5,6,7,8,1b,2,3,4,5,6,7,8,1b,2,3,4,5,6,7,8,1b,2,3,4,5,6,7,8,1b,2,3,4,5,6,7,8,1b,2,3,4,5,6,7,8,1b,2,3,4,
5,6,7,8,1b,2,3,4,5,6,7,8,1b,2,3,4,5,6,7,8,1b,2,3,4,5,6,7,8,1b,2,3,4,5,6,7,8,1b,2,3,4,5,6,7,8,1b,2,3,4,5,6,7,8,1b,2,3,4,5,6,7,8,1b,2,3,4,
5,6,7,8,8b,7,6,5,4,3,2,1,8b,7,6,5,4,3,2,1,8b,7,6,5,4,3,2,1,8b,7,6,5,4,3,2,1,8b,7,6,5,4,3,2,1,8b,7,6,5,4,3,2,1,8b,7,6,5,4,3,2,1,8b,7,6,5,
4,3,2,1,8b,7,6,5,4,3,2,1,8b,7,6,5,4,3,2,1,8b,7,6,5,4,3,2,1,8b,7,6,5,4,3,2,1,8b,7,6,5,4,3,2,1,8b,7,6,5,4,3,2,1,{16}8b,,B8,
B8,5bh[8:3]/4bh[8:3]/3bh[8:3]/2bh[8:3],,,,,,5b/4b/3b/2b/6b/7b/8b/1b/E6f/E5f/E4f/E3f/E2f/E1f/E8f/E7f,,,,,,,,7/6/5/4,
,7/6/5/4/7h[8:3]/6h[8:3]/5h[8:3]/4h[8:3],,,,,,7b/B7f/E8f/D5/A4/D4/A3/D3/A2/D2/B6f/A1/A5/A8/8b/1b/2b/3b/4b/5b/6b/D1/E6f,,,,,,,,3,
4/3,5h[8:3]/4h[8:3]/3h[8:3],,,,,,6b/Cf/E1f/D2f/A1f/A8f/D1f/E5f/D8f/4b/1b/7b/3b/2b/8b/5b/D5f,,,,6h,6h,6h,6h,6h,
6h,6h,{8}4>4q6<6>5q4v7-2-5-7-2>3-7-4-8-2<1-5-8v3p7-4-2-7v6-4v2pp2v3v4v5v6pp7-2-8>1-7-2<1-6-4<5-7<6<7-2<1v3-1-6-2-8-3-1-4-7-5>4-6-3b[16:5],{16},,,5b/D1f/D8f/D7f/A5f/D5f/A4f/D4f/A3f/D3f/A2f/D2f/D6f/8b/4b/3b/7b/2b/1b/6b/E3f/E5f,{32},,,,,,,,,,8h,7h,6h,5h,4h,3h,
2h,1h,{16}4-8b[64:1],,4q5b[32:1],,,,8/8/8h/8h,,,,6b/5b/6/5/6bh/5bh,,,,2,
{64},,,,4,4,4,4,,,,,,,,,{16}5,,,6,,,,8h[8:1],,7h[8:1],,6h[8:1],
,1-5b[32:1],,2-4b[32:1],,1-5b[32:1],,2-4b[32:1],,1-5b[32:1],,2-4b[32:1],,1,,2,
,6h[8:3],,,,,,8,,,,,,Ch[16:5],,,,,,,,Ch[4:1],
,,,,{8}Ch[4:1],{16},,,,Ch[16:3],
,,,,Ch[16:3],,,,Ch[16:3],,,,Ch[16:3],,,,Ch[8:1],
,,Ch[8:1],,,Ch[16:1],Ch[16:1],Ch[16:1],{24}Ch[16:1],,Ch[24:1],Ch[24:1],Ch[24:1],Ch[24:1],Ch[24:1],Ch[24:1],Ch[24:1],
{32}Ch[32:1],Ch[32:1],Ch[32:1],Ch[32:1],Ch[32:1],Ch[32:1],{48}Ch[32:1],,Ch[48:0],Ch[48:0]/Ch[48:0],Ch[48:0],Ch[48:0],Ch[48:0]/Ch[48:0],Ch[48:0]/Ch[48:0],Ch[48:0]/Ch[48:0],Ch[48:0],Ch[48:0],Ch[48:0]/Ch[48:0],Ch[48:0],,Ch[48:0],Ch[48:0]/Ch[48:0],Ch[48:0],Ch[48:0]/Ch[48:0],Ch[48:0]/Ch[48:0]/Ch[48:0]/Ch[48:0],Ch[48:0]/Ch[48:0],Ch[48:0],Ch[48:0],Ch[48:0],Ch[48:0]/Ch[48:0],Ch[48:0],,Ch[48:0],Ch[48:0]/Ch[48:0],Ch[48:0],Ch[48:0]/Ch[48:0],Ch[48:0]/Ch[48:0]/Ch[48:0]/Ch[48:0],Ch[48:0]/Ch[48:0],Ch[48:0],Ch[48:0]/Ch[48:0],Ch[48:0]/Ch[48:0],{24}Ch[48:0],{48}Ch[48:0],Ch[48:0]/Ch[48:0],
Ch[48:0],Ch[48:0]/Ch[48:0],Ch[48:0]/Ch[48:0]/Ch[48:0]/Ch[48:0],Ch[48:0]/Ch[48:0],Ch[48:0],Ch[48:0],Ch[48:0],Ch[48:0]/Ch[48:0],{24}Ch[48:0],{48}Ch[48:0],Ch[48:0]/Ch[48:0],Ch[48:0],Ch[48:0]/Ch[48:0],Ch[48:0]/Ch[48:0]/Ch[48:0]/Ch[48:0],Ch[48:0]/Ch[48:0],Ch[48:0],Ch[48:0]/Ch[48:0],Ch[48:0]/Ch[48:0],Ch[48:0],,Ch[48:0],Ch[48:0]/Ch[48:0],Ch[48:0]/Ch[48:0]/Ch[48:0],,8b/1b/2b/7b,{16},,,{192},{64}4,5,6,4/6/5,5/6/4,5/5/6,5/5/4,{32}4/6/5,,,,,,,{16}1<4v6[32:1],
,3-1-4-7-5b[32:1],,,,8?-5[2:1]*-2v3-5[2:1],,,,,,,,,,,,8h,
,8h,,7,,6,,5,,4b/B4f/D6f/A6f/E8f/E1f/D3f/B5f/D1f/A3f/B6f/E7f/B7f/B1f/B8f/A2f/E3f/Cf/B3f/D5f/B2f/D2f/5b/6b/7b/8b/1b/2b/3b/E4f/D4f/A4f/E5f/E6f/D7f/A7f/D8f/A8f/A1f/E2f/A5f,,,,8/7/6/5/4/3/2/1,
8/7/6/5/4/3/2/1,1/2/3/4/5/6/7/8,8/7/6/5/4/3/2/1,8/7/6/5/4/3/2/1,8/7/6/5/4/3/2/1,1/2/3/4/5/6/7/8,8/7/6/5/4/3/2/1,8/7/6/5/4/3/2/1,8/7/6/5/4/3/2/1,1/2/3/4/5/6/7/8,8/7/6/5/4/3/2/1,8/7/6/5/4/3/2/1,8/7/6/5/4/3/2/1,1/2/3/4/5/6/7/8,
8/7/6/5/4/3/2/1,{64}6/5/4/3,6/5/4/3,6/5/4/3,3/4/5/6,6/5/4/3,3/4/5/6,6/5/4/3,3/4/5/6,6/5/4/3,6/5/4/3,6/5/4/3,3/4/5/6,6/5/4/3,3/4/5/6,6/5/4/3,3/4/5/6,6/5/4/3,6/5/4/3,6/5/4/3,3/4/5/6,6/5/4/3,3/4/5/6,6/5/4/3,3/4/5/6,6/5/4/3,6/5/4/3,6/5/4/3,3/4/5/6,6/5/4/3,3/4/5/6,6/5/4/3,3/4/5/6,6/5/4/3,6/5/4/3,6/5/4/3,3/4/5/6,6/5/4/3,3/4/5/6,6/5/4/3,3/4/5/6,6/5/4/3,6/5/4/3,6/5/4/3,3/4/5/6,6/5/4/3,3/4/5/6,6/5/4/3,3/4/5/6,6/5/4/3,6/5/4/3,6/5/4/3,3/4/5/6,6/5/4/3,3/4/5/6,6/5/4/3,3/4/5/6,6/5/4/3,6/5/4/3,6/5/4/3,3/4/5/6,
6/5/4/3,3/4/5/6,6/5/4/3,3/4/5/6,{16}8,8,8,8,8,8,8,8,8,8,8,8,8,8,8,
8,6/5/4/3/6h/5h/4h/3h,6/5/4/3/6h/5h/4h/3h,6/5/4/3/6h/5h/4h/3h,6/5/4/3/6h/5h/4h/3h,6/5/4/3/6h/5h/4h/3h,6/5/4/3/6h/5h/4h/3h,6/5/4/3/6h/5h/4h/3h,6/5/4/3/6h/5h/4h/3h,6/5/4/3/6h/5h/4h/3h,6/5/4/3/6h/5h/4h/3h,6/5/4/3/6h/5h/4h/3h,6/5/4/3/6h/5h/4h/3h,6/5/4/3/6h/5h/4h/3h,6/5/4/3/6h/5h/4h/3h,6/5/4/3/6h/5h/4h/3h,
6/5/4/3/6h/5h/4h/3h,{64}8b/7b/6b/5b/4b/3b/2b/1b,6?qq1b[32:1]/4?pp1b[32:1],{1},{4},{16},,,{32},{16}7?-5v4-2[32:1]/2?-4v5-7b[32:1],
,,,,,,,8?-5q4[32:1],
,,,4?pp1>3[32:1],,,,,,,,,,,,8b/E5f/A5f/A6f/D7f/E7f/E6f/A4f/D4f/A3f/E3f/B7f/B8f/B5f/A7f/B6f/Cf/E8f/B4f/E2f/B3f/B1f/1b/2b/3b/4b/5b/6b/7b/D1f/A1f/D2f/D3f/A2f/D5f/D6f/D8f/A8f/E1f/B2f/E4f,
{48},,{12}7,6,5,4,3,2,1,2,3,4,
5,6,5,4,3,2,1,2,3,4,5,6,
{16}7,,,B1f/B2f,,,{8}B1f/B2f,{16},B1f/B2f,,,B1f/B2f,,,B1f/B2f,
,,{8}B1f/B2f,{16},B1f/B2f,,,B1f/B2f,,,B1f/B2f,,,{8}B1f/B2f,
{16},3,{48},4,,,,5,,,,{16}6,{48},7,,,,8,,,,{16}7,{48},6,,,,5,,,,{16}4,{48},3,,,,4,
,,,{16}5,{48},6,,,,7,,,,{16}8,{48},7,,,,6,,,,{16}5,{48},4,,,,3,,,,{16}2,{48},,{12}1,
{96}8,,,,,,,,,,,,,,,,,,,B1f/B2f,,,,,,,,,,,,,,,,B1f/B2f,,,,,,,,,,,,,,,,{32}B1f/B2f,{96},,,,,,,,,,,,,B1f/B2f,,,,,,,,,,,,,,,,,{8}B1f/B2f,
{24},B1f/B2f,,,,B1f/B2f,,,,{8}B1f/B2f,{32},B1f/B2f,{96},,,,,,,,,,,,,B1f/B2f,,,,,,,,,,,,,,,,B1f/B2f,,,,,,,,,,,,,,,,{32}B1f/B2f,
,,,,{16}B1f/B2f,,B1f/B2f,,B1f/B2f,,B1f/B2f,,B1f/B2f,,B1f/B2f,,B1f/B2f,
,B1f/B2f,,B1f/B2f,,B1f/B2f,{32},B1f/B2f,,,B1f/B2f,,,B1f/B2f,,,{16}B1f/B2f,{32},B1f/B2f,,,B1f/B2f,,,B1f/B2f,
,,{16}B1f/B2f,{32},B1f/B2f,,,B1f/B2f,,,B1f/B2f,,B1f/B2f,,B1f/B2f,,B1f/B2f,,B1f/B2f,,B1f/B2f,,B1f/B2f,,B1f/B2f,,B1f/B2f,,B1f/B2f,,B1f/B2f,
,B1f/B2f,,B1f/B2f,,B1f/B2f,,B1f/B2f,,B1f/B2f,,B1f/B2f,,B1f/B2f,,B1f/B2f,,B1f/B2f,,B1f/B2f,,B1f/B2f,,B1f/B2f,,B1f/B2f,,B1f/B2f,,B1f/B2f,,B1f/B2f,
{64},,B1f/B2f,B1f/B2f,B1f/B2f,B1f/B2f,B1f/B2f,B1f/B2f,B1f/B2f,B1f/B2f,B1f/B2f,B1f/B2f,B1f/B2f,B1f/B2f,B1f/B2f,B1f/B2f,B1f/B2f,B1f/B2f,B1f/B2f,B1f/B2f,B1f/B2f,8/B6f/E5f/A3f/B8f/E6f/E3f/E8f/E7f/B4f/E1f/B7f/B5f/E4f/Cf/D3f/D4f/A2f/D6f/D5f/A4f/B2f/B1f/3/2/7/6/5/1/A1f/E2f,
E
