&title=Axium Crisis
&artist=ak+q
&first=0.51
&des=47Doxs
&lv_5=14
&inote_1=(170){4}
{1}1-5[1:1]*>1[2:3],,
{1}8-4[1:1]*<8[2:3],,
{1}7p2[8:3]*>2[8:3],2q7[8:3]*<7[8:3],
{1}3v1>3[8:4]/6v8<6[8:4],
{4}5h[4:3],,,C,
{8}3-8[8:1]/7,1,3/7,6,
{8}5h[24:4],1,2,3,
{8}4-1[8:1],,4/8,7-3[8:1],,7/3,
{16}2,1,2,1,
{4}3h[4:1],
{16}4,5,6,7,
{8}8-4[8:1],4h[24:1],3,2,
{8}1>4[8:1],,1/7,6q2[8:1],,6/5,
{16}3,1,3,1,
{8}2>5[8:1],,2/8,7,
{24}6,,,1,6,,
{8}2,3,
{8}4V28[8:1],,4,5,6-3[8:1],,6,,
{8}2>4[8:1],,1<6[8:1],1,5-1[8:1],5,8-4[8:1],8,
{4}1w5[8:1],1,8w4[8:1],8,
{8}1-3<4[8:1],8,1/7,6-8>1[8:1],5,6/4,3-5<6[8:1],2,3/1,8-2>3[8:1],7,8/6,
{8}5-7[8:1],4-2[8:1],5,4,8-5[8:1],1,2,3,4v1[8:1],6v1[8:1],,,2,3,4,5,
{8}E7,E8,E1,E2,
{8}3-8[8:1],8,7,6-3[8:1],3,2,1-4[8:1],4,5,6-1[8:1],1,2,3h[8:1],4h[8:1],
{8}5h[8:1],6h[8:1],
{8}7>2[8:1],7,6,5,4<7[8:1],4,3,2,1x>4[8:1],8,7,6x<1[8:1],5,4,3,2,
{8}1-5[8:1],2,1/8,7,
{8}8-4[8:1],7,8/1,2,3-8[8:1],2,3/4,5,6-1[8:1],7,6/5,4,
&inote_5=(170){4}
{1}1-5[1:1]*>1[2:3],,
{1}8-4[1:1]*<8[2:3],,
{1}7p2[8:3]*>2[8:3],2q7[8:3]*<7[8:3],
{1}3v1>3[8:4]/6v8<6[8:4],
{4}5h[4:3],,,C,
{8}3b-8[8:1]/7b,1,3/7,6,
{8}5h[24:4],1,2,3,
{8}4-1[8:1],,4/8,7-3[8:1],,7/3,
{16}2,1,2,1,
{4}3h[4:1],
{16}4,5,6,7,
{8}8-4[8:1],4h[24:1],3,2,
{8}1>4[8:1],,1/7,6q2[8:1],,6/5,
{16}3,1,3,1,
{8}2>5[8:1],,2/8,7,
{24}6,,,1,6,,
{8}2,3,
{8}4V28[8:1],,4,5,6-3[8:1],,6,,
{8}2>4[8:1],,1<6[8:1],1,5-1[8:1],5,8-4[8:1],8,
{4}1w5[8:1],1,8w4[8:1],8,
{8}1-3<4[8:1],8,1/7,6-8>1[8:1],5,6/4,3-5<6[8:1],2,3/1,8-2>3[8:1],7,8/6,
{8}5-7[8:1],4-2[8:1],5,4,8-5[8:1],1,2,3,4v1[8:1],6v1[8:1],,,2,3,4,5,
{8}E7,E8,E1,E2,
{8}3-8[8:1],8,7,6-3[8:1],3,2,1-4[8:1],4,5,6-1[8:1],1,2,3h[8:1],4h[8:1],
{8}5h[8:1],6h[8:1],
{8}7>2[8:1],7,6,5,4<7[8:1],4,3,2,1x>4[8:1],8,7,6x<1[8:1],5,4,3,2,
{8}1-5[8:1],2,1/8,7,
{8}8-4[8:1],7,8/1,2,3-8[8:1],2,3/4,5,6-1[8:1],7,6/5,4,
{8}3-8[8:1],8-4[8:1],4,6,7-1[8:1],1-6[8:1],5,3,4<7[8:1],4,3,2,8>3[8:1],8,7x,6x,
{16}5,4,6,5,7,5,6,4,5,3,4,2,5,3,6,4,7,5,7,5,7,5,8,5,8,5,1,5,1,5,1,4,1x,8,7,6,
{16}8x,7,6,5,7x,6,5,4,6x,5,4,3,
{16}B5,B4,B3,B2,B1,B8,B7,B6,
{32}E5,E4,E3,E2,E1,E8,E7,E6,E5f,,,,,,,,
{8}3xpp5[8:1],3,5,6xqq4[8:1],6,4,2xpp4[8:1],2,4,7xqq5[8:1],7,5,
{8}1>4[8:1],2,1/8<5[8:1],7,
{8}8/2xqq8[8:1],2,8,7xpp1[8:1],7,1,3xqq1[8:1],3,1,6xpp8[8:1],6,8,
{8}2,1x/3,7,6/8x,
{8}2/5,
{16}3-1[8:1],4,3,4,3x,,6-8[8:1],5,6,5,6x,,2-4[8:1],1,2,1,2x,,7,8,6,1,
{8}5,4x/6x,3x/7x,2x/8x,
{8}1bx,
{16}7-4[8:1],8,7,8,7,,2-5[8:1],1,2,1,2,,8-4[8:1],4,8,4,8,,1-5[8:1],5,1,5,
{8}1,7,8/6,,
{16}2,1,3,1,2,,7,8,6,8,7,,1,8,2,8,1,,8,1,7,1,6,1,
{2}5<8[8:1],1-5[8:1],5w1[8:5],,
{8}3/7,4/8,5/6,1/5,3/7,
{16}2,6,3,7,4,8,
{8}5V31[8:1],1q6[8:1]/8,5/6-2[8:1],8,5,
{16}7,8,7,8,7,8,6,,3,4,3,4,3,4,3,2,1,8,2,1,8,7,
{8}6/1-5[8:1],2,1/6-8[8:1],7,6/4-8[8:1],3,
{16}4/5-1[8:1],,,6x,5/3-8[8:1],,,,
{4}3/7-3[8:1],7/1w5[8:1],1,
{16}3/8,,2,1,2,1,2h[16:1],,6/1,,7,8,7,8,7h[16:1],,
{8}1>4[8:1],1,1/8,7,6<1[8:1],6,6/5,4,3<6[8:1],3,3/2,1,
{8}8>3[8:1],8,8/7,6,5<8[8:1],5,5/4,3,2/1,3,8/7,6,
{8}2/5,4/6,7/1,3/8,1/5,2/4,4/8,7/5,
{8}6-2[8:1],6,5-1[8:1],5,4-8[8:1],4,3-7[8:1],3,3/7,
{16}6,5,6,4,5,5,6b/4b,,,,4b/2b,,,,7b/1b,,,,
{16}1>4[8:1]*<6[8:1],1,1,1,1b-4[8:1]*-6[8:1],,,,
{4}1bw5[8:1],1b,
{16}8-4[8:1],8,8,8,8bw4[8:1],,,,8b,,,,
{16}2,6,3,5,
(160){16}4,6,3,7,
(156){16}2,7,1,7,
(152){16}8,7,1,6,
(148){16}2,2,3,3,
(144){16}4,4,5,5,
(140){16}2/6,2/6,3/7,3/7,
(136){16}4x/8x,3x/7x,2x/6x,1x/5x,
(132){1}Ch[1:1],,
(170){8}6h[8:3],5,4,3,,,,,
{8}3h[2:1],4,5,6,7x,,,,
{8}8h[2:1],1,2,3,4x,,,,4h[2:1],5,6,7,8,,,,
{8}7/3,2,1>4[8:1],8,1/7,,,,
{8}2/6,7,8<5[8:1],1,8/2,,,,
{8}3,4,5-1[8:1],6,5/7,,,,
{8}6,5,4-8[8:1],3,4/2,,,,
{16}6/1,,2,,3/7,,8,2,8,2,8,,
{8}1>4[8:1],8,1/7,7-3[8:1],,7/5-1[8:1],,
{16}5/1x,8x,7x,,,,
{8}6<8[8:1],6,6/1,
{16}2,1,2-5[8:1],1,2,,2/8-4[8:1],,7,,8/3,,2,,1,,8,1,8,1,8,,
{16}7,8,7,8,
{8}7-3[8:1],7,8,1,2-6[8:1],2,3,4,5-1[8:1],5,6,7,8-4[8:1],8,1,2,
{4}3p6[4:1],6>1[4:1],1q7[4:1],7p2[4:1],
{2}8-4[8:1],2-5[8:1]/1-6[8:1],
{8}7,2/6,1/5,4/8,3h[4:1]/7h[4:1],,,
{16}8/4,1/5,2pp5[8:3]/6pp1[8:3],,,,,,,,,,,,
{8}4-2[8:1]/8-6[8:1],3/7,4/8,,C,1,
{8}1>3[8:1],3<5[8:1],5<7[8:1],7>1[8:1],1q2[4:1],,,8-4[8:1],8,,,
{16}1-6[4:1]/5-2[4:1],2/6,3/7,,,,,,,,,,
{8}8<5[8:1],5<8[8:1],8,4,,,3,2-5[8:1],1-6[8:1],2,1,
{8}4<7[8:1],4,3,2,1>4[8:1],1,8,7,6-2[8:1],,,3,3w7[8:1],,,,
{8}1<6[8:1],1,2,3-8[8:1],3-6[8:1],3x,3x,7-2[8:1],7,,,
{16}4,5,
{8}6-1[8:1],1-5[8:1],2-6[8:1],2,2,,,8,
{8}8<6[8:1],6>4[8:1],4>2[8:1],2<8[8:1],8p7[4:1],,,4,4-1[8:1],,,
{16}8x,7x,6x,
{16},5/7,,4/8,,8,3,8,,2,1,2,1,2,,
{8}8<5[8:1],5-8[8:1],8,,1>4[8:1],4-1[8:1],1,,
{8}8<5[8:1],8,1,2,3/4,5/2,6/1,8/7,
{16}1,8,2,1,3,8,4,7,
{24}4,3,2,1,8,7,
{32}5,6,7,8,1,2,3,4,5bw1[8:12],,,,
{8},,,,,,,,,,,,,,,4w8[2:3],,,,,,,,,,,,,,,,
{1}2q5[8:12]/6q1[8:12],,
{1}4p2[8:6]/8p6[8:6],
{8},,,,1b,,,,
E
&inote_6=(170){4}
{1}1-5[1:1]*>1[2:3],,
{1}8-4[1:1]*<8[2:3],,
{1}7p2[8:3]*>2[8:3],2q7[8:3]*<7[8:3],
{1}3v1>3[8:4]/6v8<6[8:4],
{4}5h[4:3],,,C,
{8}3b-8[8:1]/7b,1,3/7,6,
{8}5h[24:4],1,2,3,
{8}4-1[8:1],,4/8,7-3[8:1],,7/3,
{16}2,1,2,1,
{4}3h[4:1],
{16}4,5,6,7,
{8}8-4[8:1],4h[24:1],3,2,
{8}1>4[8:1],,1/7,6q2[8:1],,6/5,
{16}3,1,3,1,
{8}2>5[8:1],,2/8,7,
{24}6,,,1,6,,
{8}2,3,
{8}4V28[8:1],,4,5,6-3[8:1],,6,,
{8}2>4[8:1],,1<6[8:1],1,5-1[8:1],5,8-4[8:1],8,
{4}1w5[8:1],1,8w4[8:1],8,
{8}1-3<4[8:1],8,1/7,6-8>1[8:1],5,6/4,3-5<6[8:1],2,3/1,8-2>3[8:1],7,8/6,
{8}5-7[8:1],4-2[8:1],5,4,8-5[8:1],1,2,3,4v1[8:1],6v1[8:1],,,2,3,4,5,
{8}E7,E8,E1,E2,
{8}3-8[8:1],8,7,6-3[8:1],3,2,1-4[8:1],4,5,6-1[8:1],1,2,3h[8:1],4h[8:1],
{8}5h[8:1],6h[8:1],
{8}7>2[8:1],7,6,5,4<7[8:1],4,3,2,1x>4[8:1],8,7,6x<1[8:1],5,4,3,2,
{8}1-5[8:1],2,1/8,7,
{8}8-4[8:1],7,8/1,2,3-8[8:1],2,3/4,5,6-1[8:1],7,6/5,4,
{8}3-8[8:1],8-4[8:1],4,6,7-1[8:1],1-6[8:1],5,3,4<7[8:1],4,3,2,8>3[8:1],8,7x,6x,
{16}5,4,6,5,7,5,6,4,5,3,4,2,5,3,6,4,7,5,7,5,7,5,8,5,8,5,1,5,1,5,1,4,1x,8,7,6,
{16}8x,7,6,5,7x,6,5,4,6x,5,4,3,
{16}B5,B4,B3,B2,B1,B8,B7,B6,
{32}E5,E4,E3,E2,E1,E8,E7,E6,E5f,,,,,,,,
{8}3xpp5[8:1],3,5,6xqq4[8:1],6,4,2xpp4[8:1],2,4,7xqq5[8:1],7,5,
{8}1>4[8:1],2,1/8<5[8:1],7,
{8}8/2xqq8[8:1],2,8,7xpp1[8:1],7,1,3xqq1[8:1],3,1,6xpp8[8:1],6,8,
{8}2,1x/3,7,6/8x,
{8}2/5,
{16}3-1[8:1],4,3,4,3x,,6-8[8:1],5,6,5,6x,,2-4[8:1],1,2,1,2x,,7,8,6,1,
{8}5,4x/6x,3x/7x,2x/8x,
{8}1bx,
{16}7-4[8:1],8,7,8,7,,2-5[8:1],1,2,1,2,,8-4[8:1],4,8,4,8,,1-5[8:1],5,1,5,
{8}1,7,8/6,,
{16}2,1,3,1,2,,7,8,6,8,7,,1,8,2,8,1,,8,1,7,1,6,1,
{2}5<8[8:1],1-5[8:1],5w1[8:5],,
{8}3/7,4/8,5/6,1/5,3/7,
{16}2,6,3,7,4,8,
{8}5V31[8:1],1q6[8:1],5,8,5,
{16}7,8,7,8,7,8,6,,3,4,3,4,3,4,3,2,1,8,2,1,8,7,
{8}6/1-5[8:1],2,1/6-8[8:1],7,6/4-8[8:1],3,
{16}4/5-1[8:1],,,6x,5/3-8[8:1],,,,
{4}3/7-3[8:1],7/1w5[8:1],1,
{16}3/8,,2,1,2,1,2h[16:1],,6/1,,7,8,7,8,7h[16:1],,
{8}1>4[8:1],1,1/8,7,6<1[8:1],6,6/5,4,3<6[8:1],3,3/2,1,
{8}8>3[8:1],8,8/7,6,5<8[8:1],5,5/4,3,2/1,3,8/7,6,
{8}2/5,4/6,7/1,3/8,1/5,2/4,4/8,7/5,
{8}6-2[8:1],6,5-1[8:1],5,4-8[8:1],4,3-7[8:1],3,3/7,
{16}6,5,6,4,5,5,6b/4b,,,,4b/2b,,,,7b/1b,,,,
{16}1>4[8:1]*<6[8:1],1,1,1,1b-4[8:1]*-6[8:1],,,,
{4}1bw5[8:1],1b,
{16}8-4[8:1],8,8,8,8bw4[8:1],,,,8b,,,,
{16}2,6,3,5,
(160){16}4,6,3,7,
(156){16}2,7,1,7,
(152){16}8,7,1,6,
(148){16}2,2,3,3,
(144){16}4,4,5,5,
(140){16}2/6,2/6,3/7,3/7,
(136){16}4x/8x,3x/7x,2x/6x,1x/5x,
(132){1}Ch[1:1],,
(170){8}6h[8:3],5,4,3,,,,,
{8}3h[2:1],4,5,6,7x,,,,
{8}8h[2:1],1,2,3,4x,,,,4h[2:1],5,6,7,8,,,,
{8}7/3,2,1>4[8:1],8,1/7,,,,
{8}2/6,7,8<5[8:1],1,8/2,,,,
{8}3,4,5-1[8:1],6,5/7,,,,
{8}6,5,4-8[8:1],3,4/2,,,,
{16}6/1,,2,,3/7,,8,2,8,2,8,,
{8}1>4[8:1],8,1/7,7-3[8:1],,7/5-1[8:1],,
{16}5/1x,8x,7x,,,,
{8}6<8[8:1],6,6/1,
{16}2,1,2-5[8:1],1,2,,2/8-4[8:1],,7,,8/3,,2,,1,,8,1,8,1,8,,
{16}7,8,7,8,
{8}7-3[8:1],7,8,1,2-6[8:1],2,3,4,5-1[8:1],5,6,7,8-4[8:1],8,1,2,
{4}3p6[4:1],6>1[4:1],1q7[4:1],7p2[4:1],
{2}8-4[8:1],2-5[8:1]/1-6[8:1],
{8}7,2/6,1/5,4/8,3h[4:1]/7h[4:1],,,
{16}8/4,1/5,2pp5[8:3]/6pp1[8:3],,,,,,,,,,,,
{8}4-2[8:1]/8-6[8:1],3/7,4/8,,C,1,
{8}1>3[8:1],3<5[8:1],5<7[8:1],7>1[8:1],1q2[4:1],,,8-4[8:1],8,,,
{16}1-6[4:1]/5-2[4:1],2/6,3/7,,,,,,,,,,
{8}8<5[8:1],5<8[8:1],8,4,,,3,2-5[8:1],1-6[8:1],2,1,
{8}4<7[8:1],4,3,2,1>4[8:1],1,8,7,6-2[8:1],,,3,3w7[8:1],,,,
{8}1<6[8:1],1,2,3-8[8:1],3-6[8:1],3x,3x,7-2[8:1],7,,,
{16}4,5,
{8}6-1[8:1],1-5[8:1],2-6[8:1],2,2,,,8,
{8}8<6[8:1],6>4[8:1],4>2[8:1],2<8[8:1],8p7[4:1],,,4,4-1[8:1],,,
{16}8x,7x,6x,
{16},5/7,,4/8,,8,3,8,,2,1,2,1,2,,
{8}8<5[8:1],5-8[8:1],8,,1>4[8:1],4-1[8:1],1,,
{8}8<5[8:1],8,1,2,3/4,5/2,6/1,8/7,
{16}1,8,2,1,3,8,4,7,
{24}4,3,2,1,8,7,
{32}5,6,7,8,1,2,3,4,5bw1[8:12],,,,
{8},,,,,,,,,,,,,,,4w8[2:3],,,,,,,,,,,,,,,,
{1}2q5[8:12]/6q1[8:12],,
{1}4p2[8:6]/8p6[8:6],
{8},,,,1b,,,,
E
