&title=larva
&artist=ガリガリさむし
&first=0.05
&lv_6=14+
&des_6=《爆笑虫子》(Larva)是由韩国TUBAn公司制作的搞笑无对白动画短片......
&inote_6=
(202){4},{8},,,,,,6/3,
,,2/5,,,{4}7/4,
{8},7/2,,,,,,,2>7[4:5],
,,5,,,{4}3,
{8},4,,,{2}1b,
{8}1/6,,,5/2,,,{4}6/3,
{8},7/4,,,{4}5/4,2/7<2[4:3],
{8}1,,,7,,,{4}6,
{16},,,,,,,,1,7,2,6,3,5,4,6,
{1}7/3q5[8:9],
{8}7,,,6,,,{4}8/4,
{1}2/6pp4[8:9],
{8}2,,,2,,,{4}6/2-4[8:1],
6/2,6/2-5[8:1],8/2,3/7-4[8:1],
7/2-6[8:1],5/2,7-4[8:1]/3-8[8:1],7/3,
{8}8/4,2,5/1,6,7/3,1,8/4,6,
7/3,5/1,7-2[8:1]/3-6[8:1],5/1,{2}7/3,
{16}1b/4b,8,7,6,{8}5,7/8,{16}1,2,3,4,5/6,7,8,1,
{8}2/4,{16}1,8,{8}7/3,5/1,{16}2,6,2,6,3,7,3,7,
{8}2>5[8:1],{16}6,7,{4}8/2,{16}8,7,6,5,1,2,3,4,
{8}5/1,7/3,6/2>5[8:1],{16}5/1,6,7,8,{8}1-6[8:1],4/3,1/3,
{16},,4,5,{8}4,7/2,{16}7,6,5/1,2,3/7,6,5,4,
{8}3/2v5[8:1],8/1,{4}2/4,{16}4,6,4,6,3,7,3,7,
{12}2,1,8,6,5,4,1,8,7,4,3,2,
{8}7/8,4/3,1/2,6/5,{4}7v4[8:1]/2v5[8:1],7b/2b>8[1:3],
{1}6h[2:7],
,,{4},,,{8}2-5[8:1],
2,
1-6[8:1],1,3-8[8:1],3,5-1[8:1],5,4-7[8:1],4,
8-3[8:1]*-2[8:1],8-6[8:1]*-5[8:1],{4}8,,3h[8:5],
7-5-2[4:1],7,3-7[8:1],3/1-6[8:1],
1>4[8:1],1<6[8:1],1-4[8:1],7/1,
{8}6,5/4,3,6/5,8-5[8:1],4/3,8/2,2,
,5/4,6/3,7/2,{16}8/1,7,6,5,4/3,2,1,8,
7,6,5,4,3/7,6,5,4,3/7,6,5,4,3/7,6,5,4,
3/2,1,8,7,6,5,4,3,2/6,7,8/4,3,2/5,6,{8}7/4h[4:1],
,7,5,{24}4/8,,5,{8}1>4[8:1],{24}7,8,6,{8}1,7h[4:1],
,4,7,5<8[8:1],{24}4,5,4,5,,,,,,{8}4b,
{16},,5,5,5,5,5,5,{8}6/4,8/1,4/3,7/2,
{16},,1,1,1,1,1,1,{8}8/2,6/4,7/1,5/3,
{16},,4,4,4,4,4,4,{8}5/3,7/1,6/5,4/3,
,1/2>5[8:1],5/4,2,{24}6,7,8,1-5[8:1],,,{8}3/4,1/7,
{16},,6,6,6,6,6,6,{8}7/5,4/3,8/2,5/4,
{16},,4,4,4,4,4,4,{8}5/3,7/4,5/2,8/1,
{16},,1,8,1,8,1,8,{8}7/2,5/4,6/3,8/1-5[8:7],
,2,{16},8,,,3,,,7,,,{8}4,
{1}6b,
1h,
{96}2h,5,{4},,,{16},,,{64},,{96},3h,
7,{4},{16},,,{64},,{96},{2}6,
{96}4h,7b,{4},,,{16},,,{64},,{96},5h,
3,{4},{16},,,{64},,{96},{2}4,
{96}6h,3,{4},,,{16},,,{64},,{96},{256}7h,
,,,,,,2q5[256:185],{4},,,{16},,,{64},,{4}8h,
8,8,{8}8,{16}2,3,
{4}8/4,8,8,{8}8,{16}3,4,
{4}8/5,{8}8,{16}4,3,{4}2/8,{8}8,{16}2,3,
{8}4/8,7/3,6/2,5/1,6-3[8:1],1-5[8:1],6,1,
8,8,8,8,2/8,2,2,2,
{16}2/5,6,{8}7,{16}2,3,{8}4,{16}6,7,{8}8,{16}2,3,{8}4,
{16}8,1,{8}2/7,{16}4,5,{8}6/3,{16}5,4,{8}6/3,{16}5,4,{8}6/3,
5/4,2,4/3,7,6/5-8[8:1],1/7,{4}5/2,
{8}2-5[8:1],,,7-4[8:1],,,{4}6-1[8:1],
{8},3-7[8:1],,,{4}1>4[8:1],1/8<5[8:1],
{8}8/1v3[8:1],,,5v7[8:1],,,{4}4v1[8:1],
{8},8-5[8:1],,,{4}2-4[8:1],2/6-1[8:1],
6/3-7[8:1],{8}3,8-4[8:1],,8,{4}6-2[8:1],
{8}6,4-7[8:1],,4,{4}1-5[8:1],1/3-8[8:1],
3/6>3[8:1],{8}6,1-6[8:1],,1,{4}3-7[8:1],
{8}3,2,6/2,5/4,{24}4,5,4,5,,,,,,,,,{4}7<4[8:1],
{24}3,2,1,8>3[8:1],,,,,,,,,,,,,,,{4}2>5[8:1],
{24}6,7,8,1-6[8:1],,,,,,,,,,,,,,,{4}7<4[8:1],
{24}3,2,1,8-3[8:1],,,,,,,,,,,,,,,{4}2>5[8:1],
{24}6,7,8,1,{48},,,,{16}8b,7b,{8}6b/2b,{24},,,,,,{6}4/8h[3:1],
3,2,8/2h[3:1],7,6,
2/6h[3:1],1,8,6/8h[3:1],5,4,
{8}8/4,8/4,5/1,5/1,6/2,6/2,7/3,7/3,
5/1,7/3,5/4,3/8,{16}2,1,4,5,8,7,4,5,
{1}8/1-5[4:3],
{2}1bw5[8:1],{8}8/7,4/3,{32}5,6,7,8,1,2,3,4,
{8}5b/2b-6[8:1],2,7,7,{16}8/1,2,3,4,6/5,7,8,1,
{8}2/4,7/8,6/5,3/4,{16}7/1,6,5,4,1/3,8,7,6,
{8}5/8-4[8:1],8,2,2,{16}7/3-6[8:1],,,8,{4}3,
{16}2/7-4[8:1],,,1,{4}7,6b/2b>4[8:1],{16}6b/2b,7,{8}8,
5-1[8:1],5,7,7,{16}8-6[8:1],,,3,{8}8,3,
2-5[8:1],6,7,8,1-6[8:1],4,3,2,
,4/3,1-4[8:1]/8-5[8:1],6/5,{16}8/1,,,6/3,,,{8}7/2,
1b-5[8:1],8b-4[8:1],1b>3[8:1],8b<6[8:1],1bq4[2:1],8b,,,{1}6h[8:7],
{16}4,5,3,6,4,5,3,6,4,5,2,7,4,5,3,6,
4,5,3,6,4,5,3,6,4,5,4,5,4,5,4,5,
3,4,5,6,7,8,1/5,2/6,{4}3b-8[16:1]/7b-4[16:1],{8}7b/3b,6bs2[16:3]/2bs6[16:3],
,2b/6b,{16},,,,1,8,1,8,2,7,2,7,
3,6,3,6,4,5,4,5,4,5,4,5,3,6,2,7,
1,8,{8}7/2,{16}4,5,{8}6/3,{16}5,4,{8}3/6,{16}4,5,{8}6/3,
8/1,6/3,7-3[8:1]/2-6[8:1],5/4,{4}7/2,{24}8b/1b,7/2,6/3,5/4,,,{8}7-4[8:1],
2,1,8-3[8:1],5,6,7<4[8:1],3,
2,1-5[8:1],4,6,8-4[8:1],5,3,1-3-5[8:1],
4,6,8V64[8:1],5,3,1-5[8:1],4,6,
8-3[8:1],5,3,1-6[8:1],3,5,7,3,
{24}5,4,5,4,,,{4}7bv6[16:1]/2bv3[16:1],{8},,8p4[8:1],3,
2,1q5[8:1],6,7,8-4[8:1],3,2,1,
{96}2h,6,{4},{16},,,{64},,{96},7h,3,{4},{16},,,{64},,{96},{8}7/4,
5/2,6/4,5/3,8h[16:1]/1h[16:1],{16}7/2,6/3,{4}5s1[8:1]/4z8[8:1],
5b/4b,{32}8b/1b,7/2,6/3,5/4,,,,,{16}3,6,4,5,4,5,3,6,
{8}2-6[8:1],5/4,8/2,8h[16:1],{16}7,6,5,4,3/1,4,5,6,
{8}7<4[8:1]/3>1<8[8:1],8/4,{4}7/3,{8}6/2-7[8:1],4/8-4[8:1],2/6,8,
2,{16}2,3,4,5,6,7,8/4,3,2,1,8/4,7/3,6/2,5/1,
{12}4b/8b,5,6,1b,2,3,6b,7,8,2b,3,4,
7b,8,1,3b,4,5,{16}8b,1,2,3,4,5,6,7,
{8}8b/4b,{24}4,5,3,{8}6-2[8:1],7/8,6/3-5[8:1],3,7-2[8:1],7,
6-3[8:1],6,8-5[8:1],8,1-4[8:1],1,7V53[8:1],7,
{16}2,1,8,7,6,5,4,3,2/7,8,1,2,3,4,5,6,
{8}3/7-4[8:1],6/2,3/7,1,{16}1,2,3,4,3/7,2/6,1/5,8/4,
{2}7b/3b,{16}8-4[8:1],1,2,3,{4}4b/8b,
{8}7/3,5/1,6/4,5/3,{16}2b/6b,1,8,7,6b/4b,7,8,1,
{1}6b/2b-6[4.7525##0.1485],
7h,
5h,
4h,
2b,
E
&lv_7=15?
&des_7=说的道理~
&inote_7=
(202){4},{8},,,,,,7-3[8:1],
,,5-1[8:1],,,{4}8-3[8:1],
{8},2b,,,,,,,1-4[8:1],
,,8-3[8:1],,,{4}6-1[8:1],
{8},4-7[8:1],,,{2}6b,
{8}8<6[8:1],,,5>3[8:1],,,{4}2<8[8:1],
{8},7-3[8:1],,,{4}4<6[8:1],1s5[8:1],
{8}1/5v7[8:1],,,8-3[8:1],,8,{4}4<5<6<7>8>1>2>3[8:3],
{16},,,,,,,,1,8/2,7/3,2,1,8,7,6,
{1}5b/4bs8[8:5],
{8}8-4[8:1],,,5z1[8:1],,,,,{4}7v6-4[4:1],
{8}2,2,,4/3,,,6<1[8:1],
2,3,5<8[8:1],1,2,4<7[8:1],8,
{4}1-5[8:1],1-7[8:1]*-6[8:1],1v4[8:1]*-3[8:1],1-5[8:1]*-7<6[8:1],
1p4[8:1]*-4[8:1],1-7[8:1]*-6<7[8:1],1w5[8:1],1,
{8}8/1,6/3,7/2,5/4,1/2,8/3,7/4,{32}6/5,4,3,2,
{8}1/8,2/7v4[8:1],6/2v5[8:1],3/7>2[8:1],{2}2b,
{16}3,4,3,4,5,6,7,8,1/2x<6[8:1],6,5,4,{8}3,2-6[8:1],
1-4[8:1],2,1,{16}7,8,1/6,7,8,5,6,7/4,5,6,
{8}7v4[8:1],8>3[8:1],7,8,{16}4,5,6/3,2,{8}1-6[8:1],7/8-4[8:1],
1,8<5[8:1],,8/5,{24}4,3,2,1>3[8:1],,,{8}7/8,1b,
8-4[8:1],6-2[8:1],8,6,{16}4,5,6/3,4,5/2,3,4/1,2,
{8}3-8[8:1]*v6[8:1],6/5,{4}3,{16}8,7,6/5,4,3/2,1,8,7,
{12}6/5,5,5,7,8,1,5,5,5,3,2,1,
{8}5-7[8:1]*-8[8:1],5-2[8:1]*-3[8:1],5w1[8:1],5x,{2}5bx>5[4:1],
{1}2b-6[4:13],
{8},,,,,,,,,,,,,,,,,,,3bh[8:1],
,,6-3[8:1],6,
5-1[8:1],5,8-3[8:1],8,1-5[8:1],1,2-6[8:1],2,
3-7[8:1],3,{4}4-8[8:1]*-2[8:1],,1-5[8:1],
1/7p3<6[2:1],{16},,,,,,,,1,2,{8}3/7,
{16}7,6,{8}5/1,{16}3,4,{8}5/1,{16}8,7,6/4b,4b,{8}4b,7/2,
6/1,{16}8,1,{8}8,{16}5,6,5,6,{8}5,{16}4,3,{8}4,
{16}3,6,4,5,2,7,4,5,1,2,3,4,5/1,2,3,4,
5/1,2,3,4,5,6,7,8,1/2,3,4,5,1,1,1,1,
1b,8,7,6,5,4,3,4,3/4,3/4,3/4,4/3,3/4,4/3,{8}4/3bh[4:1],
,6,6,{24}2,8,2,{8}8-5[8:1],{24}1-4[8:1],7,2,{8}8,1,
7,{24}5,6,5,{8}6,7/4,1/2,{16}7/3,6/2,{8}5/1,8b/1b,
{16},,7/2,2x,7/2,7x,7/2,2x,{8}2/7,5/4,8/1,6/5,
{16},,8/1,8x,8/1,1x,8/1,8x,{8}8/1,5/4,7/2,{16}7/2,3/6,
{8}5/4,{16}4/5,4x,5/4,5x,5/4,4x,{8}5/4,1/2,7/8,4/5<8[8:1],
{24},,,1,2,3,{8}4,2-5[8:1],1-6[8:1],2,1,2b,
{16},,8/4,4x,8/4,8x,8/4,4x,{8}8/4,6/2,7/3,1/5,
{16},,1/5,5x,1/5,1x,5/1,5x,{8}1/5,3/7,6/2,5/1,
{16},,7/3,3x,7/3,7x,7/3,3x,{8}7/3,8/1,5/4,7/2,
1-5[4:3],{16}8,7h,,2,{8}3h,{16}7,6h,,3,{8}4h,{16}7,6h,
{1}4b,
8-4[8:1],
7-3[16:1],
{2}6-1[16:1]/5-8[16:1],8/1,
{1}1b-4[16:1]/2b-5[16:1],
6v3[16:1]/2-7[16:1],
8<5[16:1]/4>1[16:1],
{8}1-3[8:1],5-7[8:1],1,5,{16}1,2,6,5,3,4,8,7,
{8}2<7[8:1],4,2,4,2-6[8:1],4,2,4,
2>5[8:1],8,2,8,2-6[8:1],4,2,4,
7-3[8:1],5,7,4,7-4[8:1],1,7,2,
7-2[8:1],5,7,4,7-3[8:1],1,7,2,
8/1,8/1,6/3,6/3,8/3,8/3,6/1,6/1,
{16}8,7,3,4,2,1,5,6,1,8,4,5,2,7,3,6,
1,5,1,5,3,7,3,7,2,6,4,8,3,7,1,5,
{8}1s5[8:1],7-3[8:1],1,7,6-2[8:1],{16}8b,8b,{4}8b,
{16}8/4,7/3,6/2,5/1,{8}4/8bh[8:1],{16}4,1/5,6/2,3/7,{8}8/4bh[8:1],{16}8,7/3,2/6,1/5,
{8}4/8bh[8:1],{16}4,5/1,6/2,3/7,{8}8/4,{4}6b-3[8:1]/2b-7[8:1],6b/2b,
{16}8/4,1/5,2/6,3/7,{8}4/8bh[8:1],{16}4,7/3,6/2,5/1,{8}8/4bh[8:1],{16}8,1/5,6/2,7/3,
{8}4/8bh[8:1],{16}4,7/3,6/2,5/1,{8}4/8,{4}8b-3[8:1]/4b-7[8:1],8b/4b,
{16}5/8,7/4,6/3,5/2,{8}4/1bh[8:1],{16}4,2/5,3/6,4/7,{8}5/8bh[8:1],{16}5,7/4,6/3,5/2,
{8}4/1bh[8:1],{16}4,2/5,3/6,4/7,{8}5/8,{4}5b-1[8:1]/8b-3[8:1],8b/5b,
{16}2/4,3/5,4/6,5/7,{8}8/6bh[8:1],{16}8,7/5,6/4,5/3,{8}2/4bh[8:1],{16}2,3/5,4/6,5/7,
{8}6/8-4[8:1],1-5[8:1],8,1,{24},,,7,2,7,{4}2,
7<4[8:1],{24}3,2,1,8b>3[8:1],,,,,,,,,,,,,,,{4}2>5[8:1],
{24}6,7,8,1b<6[8:1],,,,,,,,,,,,,,,{4}7v4[8:1],
{24}3,2,1,8bs4[8:1],,,,,,,,,,,,,,,{4}2v5[8:1],
{24}6,7,8,1b,{48},,,,{16}8b/4b,7b/3b,{8}6b/2b,{24},,,,,,{6}1-3[8:1],
{12}7,1,{6}7,4-2[8:1],{12}6,4,{6}6,
6-1[8:1],{12}8,6,{6}8,7-4[8:1],{12}6,7,{6}6,
{8}8/4,8/4,6/2,6/2,7/3,7/3,5/1,5/1,
1-5[8:1],8-3[8:1],1-6[8:1],8-4[8:1],1,8,{16}1,1,1,1,
{1}1b-7-3-5[8:7],
{2}5w1[8:1],{8}6-3[8:1],2-7[8:1],6,2,
5,{32}1,2,3,4,5,6,7,8,{8}1/5,{16}8/4,7/3,6/2,5/1,{8}4/8-3[8:1],6/2,
8b/4b,4-1[8:1],5-8[8:1],4,5,{32}1,2,{16}3,{32}6,5,{16}4,{32},7/8,,,{8}4b/3bv8[8:1],
5-1[8:1],3,5,{32}2,3,{16}4,{8}8,{32}7,6,{16}5,{8}1,
{16}1b/8b-3[8:1],,,8b,{4}1b-6[8:1],8b/1bw5[8:1],1b,
{8}8-3[8:1],7-4[8:1],8,7,{32},,,,1,2,{16}3,{8}7,{32}6,5,{16}4,
{8}1-4[8:1],8-3[8:1],1-6[8:1],8-5[8:1],1-5[8:1],8-4[8:1],1,8,
,1/8-5[8:1]*-6[8:1],8/1-4[8:1]*-3[8:1],8bv3[8:1],1bv6[8:1],8b,1b,8,
8-3[8:1],E7f/B7f/B6f,6-1[8:1],B5f/E5f/B4f,{4}4-7[8:1],2q5[4:1],
{1}6bh[4:3],
{32}4,5,,,3,6,,,2,7,,,1,8,,,{8}1-4[16:1],8-5[16:1],1,8,
{16}4/3,5/2,6/1,7/8,6/1,5/2,{8}4/3,{16}6/5,7/4,8/3,1/2,8/3,7/4,{8}6/5,
{32}5,4,6,3,7,2,8,1,7,2,6,3,5,4,,,{4}5b-2[8:1]/1b-6[8:1],{16}1b/5b,,,8bs4[8:1]/4bs8[8:1],
,,,8b/4b,{32},,,,,,,,8,4,7,3,6,2,5,1,8,4,5,1,2,6,3,7,
4,4x,4,4x,4,4x,4,4x,5,5x,5,5x,5,5x,5,5x,3,3x,3,3x,3,3x,3,3x,6,6x,6,6x,6,6x,6,6x,
{16}1b,1,{24}7,6,5,{16}1b,1,{24}3,4,5,{16}1b,1,{24}8,7,6,{16}1b,1,{24}2,3,4,
{8}1b-5[8:1],B2f/B3f,8b-4[8:1],B6f/B7f,{4}8b/1b,{24}2b,1b,8b,7b,,,{8}6-3[8:1],
2b,6,7-2[8:1],3b,7,8-4[8:1],2b,
8,1-5[8:1],{4}4b,{8}7-3[8:1],5b,7,2-5[8:1],
3b,2,8-4[8:1],5b,8,3p6[8:1],4b,3,
8v3[8:1],6b,8,2v4[8:1],3b,2,6,4b,
{24}5,6,4,3,6v7[12:1],7,3v2[12:1],2,,,,,,,,,,,{8}2-5[8:1],3b,
2,8-4[8:1],5b,8,1q8[8:1],4b,1,7,
{32}6/3,5h[2:1]/4h[32:15],,,,,,,,,,,,,,,,4b,,,,,,,,,,,,,,,7,
6,1,2,7,6,1,2,6,5,2,3,6,5,2,3,8,7,6,5,1,2,3,4,{24}5,6/3,7/2,8/1,7/2,6/3,
{4}5s1[8:1]/4z8[8:1],5b/4b,{16}1b,2,8b,7,2b,3,7b,6,
3b,4,6b,5,{24}4b,5,4,5b,,,{8}2-5[16:1],7-3[16:1],1/2b,7b/8,
{16}2,3,4,2/5,3,4,7/5,6,5,7/4,6,5,{8}4/3,7/8,
{16}1,3bh,5,7bh,1,5bh,6,8bh,2,4bh,7,1bh,5,4/8h,3/7h,2/6h,
{12}5bh/1b-5[8:1],1b,1b,2b-6[8:1],2b,2b,3b-7[8:1],3b,3b,4b-8[8:1],4b,4b,
5b-1[8:1],5b,5b,6b-2[8:1],6b,6b,7b-3[8:1],7b,7b,8b-4[8:1],8b,8b,
{24},,,1,1,1,{8}1b,6/5,8/1,4/3,{32}3/7b,4,{16}5,{32}7/1b,6,{16}5,
{32}2/8b,3,{16}4,{8}8/7-4[8:1],6,{24}7/8,1,2,{8}3,{24}1,6,3,{8}4,{24}2,1,4,
{8}7,{24}7,6,5,8,1,2,6,5,4,1,2,3,1,8,7,2,3,4,7,6,5,
3,4,5,8,7,6,{32}5/4,3,2,1,8,7,6,5,4/7,8,1,2,3,4,5,6,7,8,1,2,3,4/8,5/1,6/2,
{2}7b/3b,{32}1-5[8:1],2,{16}3,{32}8-4[8:1],7,{16}6,{8}1b,{32}8b,B8f,Cf,B4f,
1,2,,,7,6,,,2,3,,,8,7,,,1,2,3,4,5b/1b,8,7,6,5b/3b,2,1,8,7b/1,6b/8,5b/7,6/4b,
{1}5/3bs7[4.7525##0.1485],
{16},,,,,,,,,,,,3,4,5,6,
6,6,6,6,6,6,6,6,8,8,8,8,8,8,8,8,
2,2,2,2,2,2,2,2,4h,4h,4h,4h,4h,4h,4h,4h,
{1}3h,
E
