&title=Wizdomiot
&artist=LeaF
&first=-0.065
&des=SeiKA
&lv_5=14
&inote_5=(200){4},{1},{4},,
{8}2b-4v5-7[1:1]/5bh[2:3],,,,,,,,,,,,
{8}8V25[2:1],8,,,,,7h[4:1],,5h[4:1],,6,,
{8}7-5[8:1]/4,,2,2,4,,1-6[8:1],,5,5,4,,
{8}2-6-4-8[2:1]/5,25,,,,,7,7,8,8,5,,
{8}26,3,4,2,35,6,47,6,5,7,48,7,
{8}46,3,4,2,15,6,37,5,4,6,47,8,
{8}1b/2b,3,4,25,6,5,71,2,1,38,4,5,
{8}3x>8[8:1]/6x>4[8:1],,3/6,,{24}7,6,5,4,3,2,{8}1-5[8:1],,7-4[8:1],7,3,3,
{8}1>4[8:1]/8<5[8:1],,1bw5[4:7]b/8bw4[4:7],,,,,,,,,,
{16},,,,,,,,,,,,,,,,,,,,1,8,1,8,
{16}2,,3,4,3,,17,,6,5,6,,47,,8,1,7,,26,,3,4,2,,
{8}1b>4[4:1]*<6[4:1]/Cf,,,,,,5xh[2:1]/4x,,,,{16}6,7,8,1,
{16}2b/5b,,3,4,3,4,3,4,2,5,1,6,8,7,8,7,1,8,2,1,3,8,4,7,
{16}5,6,4,5,3,4,3,4,2,4,2,4,1,4,2,5,3,6,4,7,5,6,4,5,
{16}2,1,2,1,3,8,4,7,3,6,2,5,1,2,3,4,15,8,7,6,15,8,7,6,
{16}5/7,,3,4,2,,15,,7,8,6,,25,,3,4,2,,6,5,7,4,8,,
{16}1b/2b,,8,1,7,,4,5,4,5,3,4,3,1,4,8,5,7,4,6,3,5,2,4,
{16}1,,7,8,6,1,5,,2,1,3,8,4,7,5,6,4,3,2,1,84,5,6,7,
{16}81,,2,2,7,6,5,4,8,7,6,5,4h[4:1]/7,,,,1,8,7,6,3h[4:1]/5,,,,.
{16}6,4,5,4,5,4,5,4,5-2-4-1[2:1]b*-8-6-1[2:1]b,4,5,4,,,,,,,,,,,,,
{4}3x-8[8:1]/7x-4[8:1],3bp1[1:2]b/7bp5[1:2],,,,,
{8},,,,,,,,,,2-6[8:1],2,5b,,5,,5,,5/E8,,5,,5,,
{8}8,8,17,17,26,26,35,{16}6,5,7,,2,1,2,1,3,,
{8}4-2[8:1]/8-6[8:1],,4b/8b,,1,1,4,{24}6,5,6,5,,,7,,,1/2V48[2:1],,,,,,
{8}8,,6,,5V74[2:1],,8,,1,1,2,,
{16}3-1[8:1]/5,,,4,3,,6h[4:1],,8,,8,,5,,{24}2,4,2,4,,,3,,,4/6-1-5[2:1],,,,,,
{8}5,,4,,3-5-2[2:1],,1,,8,8,7,,
{16}1-7[8:1]/6,,,5,1,,6h[4:1],,5,,5,,8,,{24}2,1,2,1,,,3,,,4-7-2[2:1]/5,,,,,,
{8}2,,3,,4>7[2:1],,7,,6,6,5,,
{16}24,,,56,56,,7,,,,1,,2-6[8:1]/8,,28,,7-4[8:1],,,,37,,,,
{8}2b/5b,2b/5b,2b/5b,,{32}E2,E3,E4,E5,E6,E7,E8,E1,5bxw1[8:1],,,,,,,,,,,,,,,,,,,,,,,,
{4}E4/E5/E6,,,3h[2:1],E4,E5,
{4}2h[2:1],E4,E5,1h[2:1],,E5,
{4}8,,,7h[2:1],E4,E5,
{4}E6,,,Ch[4:3],,,
{4}8b,,,4h[4:1]/2h[2:1],,,
{4}4h[2:1]/7h[4:1],,,3-1[8:1]/5-7[8:1],,8,
{4}8h[1:1],,,5h[2:1],,7,
{8}1b>8[1:1],,,,E6,E5,E4,,,,,,
{4}1b/2b,,,5h[4:1]/7h[2:1],,,
{4}5h[2:1]/2h[4:1],,,6-8[8:1]/4-2[8:1],,1,
{4}1h[1:1],,,4h[2:1],,2,
{2}8b-5-3v6V42[4:5],,,
{2}8<1[4:5],,,
{2}8<1[4:5]b,,,
{16}7,,7,,1,8,2,,2,1,3,,4,5,4,5,4,5,3,6,3,6,3,6,
{16}2,7,2,7,2,7,1,8,1,8,1,8,{32}2,3,4,5,6,7,8,1,2,3,4,5,6,7,8,1,2,3,4,5,6,7,8,1,
{2}2bw6[66.667#6:1],,,
{16}47,,6,5,6,,8,,2,1,3,,7<4[8:1]/4,,7,,3,2,1,8,7,6,5,4,
{16}38,,2,1,2,,4,,6,5,6,,1,2,3,4,8,1,2,3,7,8,1,2,
{16}36,,7,5,7,,1,,3,2,3,,4-7[8:1],,4,,4-2[8:1],,,,4,,,,
{16}61,,7,8,7,,5,,3,4,2,,1>4[8:1],,8,,1/6<8[8:1],,5,,6,,,,
{16}13,,3h[2:1],,4,5,6,7,8,1,2,,4,5,4,5,3,4,3,4,2,,1,,
{16}86,,6h[2:1],,5,4,3,2,1,8,7,,5,4,5,4,6,5,6,5,7,,8,,
{16}1b-5-7[4:1]/2bV48[4:1],,,,,,,,,,,,2h[4:1],E4,,,5h[4:1],C,,,8h[4:1],B7,,,
{16}6b>3[4:1],C,,,3>8[4:1],,,,8<2[2:1]b,,,,1h[2:1],,,,,,,,,,,,
{24}7b/8b,1x/6x,2x/5x,3x/4x,,,,,,1b/2b,3x/8x,4x/7x,5x/6x,,,,,,7b/4b,3x/6x,2x/5x,1x/4x,,,,,,2b/5b,6x/3x,7x/4x,8x/5xqq2[1:1]*pp8[1:1],,,,,,
{4}5b,,,,,,
{4}2xV48[4:3]/4x,,,8V25[4:3],7,6,
{4}5V74[4:3],,,4>1[2:1],,,
{4}8V62[4:3],,,3V51[4:3],,,
{4}1w5[4:1],,,Ch[2:1],,,
{16}2bh[2:1]/8b,,,,,,,,4b,,3b/5b,,4b/6b-1[8:1],,,,,,3b-8[8:1],,,,,,
{16}6bh[2:1],,,,,,,,4b,,5b/3b,,2b-5[8:1]/4b,,,,,,8b-4[8:1],,,,,,
{16}3,,,,7,6,5,4,7,6,5,4,8h[4:1],,,,2,1,2,1,3,1,3,1,
{16}4-8[2:1],,,,1,2,3,4,5,6,7,,{32}A2,D3,A3,D4,A4,D5,A5,D6,A6,D7,A7,D8,A8,D1,A1,D2,A2/B4f,,,,,,,,
{16}2,1,2,1,3,8,3,8,4,7,4,7,5h[16:1],,5h[16:1],,4h[16:1]/5,,4h[16:1],,3h[16:1]/6,,3h[16:1],,
{16}4,5,4,5,3,6,3,6,2,7,2,7,1,2,8,7,2,3,7,6,3,4,6,5,
{16}2,4,2,4,3,5,3,5,4,6,4,6,8,7,8,7,1,6,1,6,2,5,2,5,
{16}3,,3,,3,4,3,,2,,2,4,2,,2,,1,5,1,5,2,6,2,6,
{16}4,7,4,7,3,8,3,8,2,1,2,1,3,4,5,6,2,3,4,5,1,2,3,4,
{16}7,5,7,5,8,4,8,4,1,3,1,3,8,2,7,3,4,2,6,5,7,2,1,4,
{16}5,3,5,3,5,3,5,3,5,3,5,3,6,2,6,2,7,1,7,1,8,2,8,2,
{16}1,1,1,1,1,1,1,1,1,1,1,1,8,7,6,5,41,8,7,6,{32}25,1,8,7,6,5,4,3,
{2}2b,,,,,,
{4}E5,,,C,,,
{2}E1,,,
{4}E3/E7,,,A5,A6,A7,
{4}A1,A2,A3,A4/C,,B5,
{4}B4/B6,,,B1,B8,B2,
{32}B6,B5,B4,,,,,,,,,,,,,,,,,,,,,,,,,,,,,,,,,,,,,,,,,,,,,,
E
