&title=Growing Up
&artist= Machico/TVアニメ「この素晴らしい世界に祝福を!3」OPテーマ
&first=0.62
&des_5=Ragna
&lv_5=13+
&des=Ragna
&wholebpm=190
&demo_seek=53.1
&demo_len=28.2
&inote_5=(190){32}7x,6x,{8}
5xh[8:15],,,,E4,,,,
E7,,,,E2,,,Ch[8:11],
,7V58[4:3],7,,,,,,
,,,,{32}8hx[1:0]/1hx[1:0],2hx[1:0]/7hx[1:0],3hx[1:0]/6hx[1:0],4hx[1:0]/5hx[1:0],{8},,8x^5[8:1]/1xh[8:3],
,,,3h[8:3]/4^7[8:1],,,,1x^4[8:1]/8xh[8:3],
,,,6h[8:3]/5^2[8:1],,,,1xh[4:1]/8xh[4:1],
,,27,27,36,36,45,45,
2b/6b,2bh[8:9]/6bh[8:9],,,,,,,
,,,,4,35,26,1-5[8:1]/7,
,8,8-4-7[4:1],,3h[4:1],,,3-6[8:1],
,8pp6[8:3],,5h[4:1],,,,4-1[8:1],
,5,5h[4:1],,2pp4[8:1],7<8[8:3],2,7,
,,,,5,64,73,8-4[8:1]/2,
,1,1^6[8:1],,5,5-8[8:1],,4h[4:1],
,7pp3[8:3],3,7,,,,,
1b,1b-5-1[16:3]b,,8b,8b-4-8[16:3]b,,2b,2b-6-2[16:3]b,
,7b,7b,7b,1b/8b,1b/8b,1b/8b,1b/8b,
2-5[8:1],,4,,6-1[8:1],,8,,
3-8[8:1],,5,,7p4[8:3],,1,1h[4:1],
,,1s5[4:1],,,,6,6,
4,7qq4[32:13],,3h[4:1],,,2,2q8[16:5]*>8[16:5],
,,,,,,1,1,
5,2pp5[32:13],,6h[4:1],,,,7V51[4:1],
,,4,4h[4:1],,8,3,6,
5b/1b,6b/2b,7b/3b,8b^5[8:1]b/4b^1[8:1]b,,8b/4b,,,
3-1[8:1]/5,4,35,,64,5,6<4[4:1]/4,5,
64,,,1,1,8,8,3,
6-8[8:1]/4,5,64,,35,4,3>5[4:1]/5,4,
35,,,8,8,1,1,6,
4-8[8:1]/5,,7,7,6-1[8:1]/5,,2,2,
3-8[8:1]/4,,7,7,5-1[8:1]/4-8[8:1],,,,
27,3,84,7,16,2,83,7,
6/5b-8[8:1],,5/4b,1bw5[8:1]b,,1b,,,
2-4[8:1],4-8[8:1]*-6[8:1],
2,,,,7-5-3[4:1],5-1[8:1]*-1[8:1],7,,
,,26,,
3-8[8:1],8-6[8:1]*-4[8:1],3,,,,6-1-3[4:1],1-5[8:1]*-5[8:1],
6,,,,26,,
1-5[8:1],5^2[8:1]*^8[8:1],1,,
,,8-4^1[4:1],4^7[8:1]*^7[8:1],8,,,,{32}
1hx[1:0]/8hx[1:0],2hx[1:0]/7hx[1:0],3hx[1:0]/6hx[1:0],4hx[1:0]/5hx[1:0],{8},,,8h[2:1]/2h[8:11],,,,
,,,,5h[8:3],,,,
1x/7x,1x/7x,,,3-8[8:1],4,3,7-3[8:1],
5,7,1xh[2:1],8xh[8:3],,,,,{16}1,8,1,8,1,8,1,8,{8}
1q5[8:1],,15,7q3[8:1],,73,5b<4[8:3],,
,,,5,5-8[8:1]*-2[8:1],,5,,{16}
E2,E3,E4,E5,E1,E8,E7,E6,E2,E3,E4,E5,{8}8bx,8bxw4[8:1]b,
,,,8,8h[16:3],{16},2h[16:3],{8},5,
4-8[8:1]/3,,,1,1h[16:3],{16},7h[16:3],{8},4,
5-1[8:1]/6,,8,8,7-4[8:1]/3-8[8:1],,,,
1xv4[8:1]/5xv8[8:1],,1x^6[8:1]/5x^2[8:1],,1x-5[8:1]/5x,,1x/5x,,{32}
8x,7x,6x,5x,4x,3x,2x,1x,8bx,,,,,,,,1x,2x,3x,4x,5x,6x,7x,8x,{8}1bx,,
8p4[8:1],,84,2p6[8:1],,26,4b>5[8:3],,
,,,4,4-1[8:1]*-7[8:1],,4,,
8-4[8:1],,48,3-8-4[4:1]b,,35,6,7h[4:1],
,3,2v5[8:1]/6-1[8:1],,26,,{16}4,8,4,8,{8}
3^8[8:1],,35,,6^1[8:1],,64,,
2-6[8:1],,4-8[8:1]/2,,1-5[8:1]/4,,7>3p6[2:1]b/1,,
4bh[2:1],,,,,,,3,
2-6[8:1]/4,,2b/8x`C,,7-3[8:1],,7b/1x`C,,{16}
2,4,3,5,4,6,5,7,4,8,3,7,2,6,1,5,{8}
8b-3[8:1]b*-4[8:1]b,8b,,,1b-6[8:1]b*-5[8:1]b,1b,,,
{100000}7bqq1[4:5],{8}3x-5-2-8[4:5]b,,,,,,,,
,,,,,,,,
3^8[8:1],,7^4[8:1],,3>6-4-2[2:1],,7h[2:1],,
,,,,1-5[8:1]/7-4[8:1],,1b/7b,,
62,6,6/4-1[8:1],6,64,,72,7,
7/5-1[8:1],7,75,,62,5,34,2,
18,1,6-3[8:1]/1,1,16,,45,36,
27,18,,4b/5b,7b/8bw4[8:1],3b/4bw8[8:1]b,8b,Cf,
,{24},2x-6[24:29]*-6[24:29]/6x,3x/5x,4xh[8:11],,{4},,
,,,,
E
