&title=ワープループ
&artist=雄之助; ariiol
&first=0
&lv_5=13+
&des=DpLeZ
&inote_5=(178)
{2},
{8},
{164},
{8}1-3[8:1],,7,7-1[8:1],,3,3,4,,4h[8:1],8-4-8[2:1],,,2,,3,
{8}4-2[8:1],,5,5,,4-6-4[4:1],,4,,,3-7-3[2:1],3h[8:1],,
{8},,,,5,4,,6,6h[8:1],2,2h[8:1],7-5[8:1],7,73,,1-3-1[4:1],1,,,,
{8}8-3[8:1],8,,4,4,5,5,36,4,5,3`6,4,4,5,5,
{8}3h[4:1]/7,,8,8/4-2-4[4:1],,8,,7,,6,51,5-7-5[4:1]/1,,1,,2,
{8}3/7h[4:1],,2,2/6-8-6[4:1],,1h[8:1],,2,3,2<7>2[2:1],2,2,,4,,5,
{8}34,3,34,3,6,6,1,1,78,7,78,7,2,2,5,5,
{16}3,4,2,5,1,6,8,7,5,6,4,7,3,8,2,1,3h[2:1],7h[16:1],,7h[16:1],,7h[16:1],,,6b,,2-6[8:1],,2,,
{8}1,8qq5[2:1],,4,4,,3-8[8:1],,3,,7h[8:1],6h[8:1],5h[16:1],4h[8:1]/7-2[8:1],,7,,
{8}3h[4:1],,1h[4:1],,8h[4:1],,6-1[8:1],5,6,4,4<3[4:1],5,4,,6-8[8:1],,
{8}1-5[8:1]/6,2,1,2-4[8:1],8,2,8-4[8:1],1,8,2h[4:1],,5,3,3,4,4,3-8[8:1]/5-8[8:1],,
{8}35,,1,1h[8:1],7,7h[8:1],8b-4[8:1],,8,,8bw4[8:1],,8,,
{8}26,,26,2<7>2[2:1]/6>3[4:1],,,,,,4,4-8[8:1],4h[8:1],,,2,3,
{8}4-8[8:1],,34,,5-1[8:1],,56,6h[4:1],,1,1-3-1[4:1],,1/7-5-7[4:1],,,,
{8}1-5[8:1],2,1,2-4[8:1],8,2,8-4[8:1],1,8,2h[4:1],,5,3,3,4,4,
{8}5<8[8:1],,5,1>4[8:1],,1,7-3[8:1],,7,1-5[8:1],,1,8-4[8:1],7-3[8:1],,,2<2[1:1],,,
{8},,,8,,7,,6,,5,,4,,3>3[1:1],,,,2,,1,,8,,7,,6,,5,,4<4[1:1],,,,5,,6,,7,,8,,
{8}1,,2,3,3h[4:1],,5-7[8:1],5,5,,1,,1-6[8:1]*-7[8:1],,1-3[8:1]*-4[8:1],,1<6[8:1],,
{8}1>4[8:1],,1,,,
{16}7,6,5h[8:1],,{8},2h[8:1],4h[8:1],2h[8:1],4h[8:1],{16}2,1,8,,
{8}4h[8:1],8h[8:1],5h[8:1],1h[8:1],6h[4:1],,,{16}2,3,4h[8:1],,
{8},7h[8:1],6h[8:1],5h[8:1],4h[8:1],3h[8:1],2h[8:1],1-5[8:1],,1,,3h[8:1]/7h[4:1],
{8},,
{16}2,3,4h[8:1],,{8},7h[8:1],5h[8:1],7h[8:1],5h[8:1],{16}7,8,1,,
{8}5h[8:1],1h[8:1],4h[8:1],8h[8:1],3h[4:1],,,{16}7,6,5h[8:1],,
{8},3,{16}4,4,4,,{8},5-1[8:1],6,5,4,3-7-3[1:2],2,3,,,,,,,,,,,,,,,,
{8}1-5-1[1:2],,,,,,,,,,,,3,,,,3,,3,,3,,3,,3,,
{24}3,4,3,4,,,{8}3,,4,4,{16}3,,3,,4,,4,,2,5,6,1,8,7,5,6,4h[4:1],,
{16}8b,,8b,,8b,,7,5,6,5,7-3[8:1],5,7,5,7,,,
{16},5,4,,5,4,5,,3,4,3,,6,5,6,,3,3,4,,6,6,5,,,
{16}3-7-1-5[2:1],4,3,,6,6,,,4,4,,7,
{8}7<4[8:1],,7>2[8:1],,7,,,,56,7,56,8,4-7[8:1],4h[4:1],,,
{8}56,7,56,8,4,3,4-7[8:1],,4h[4:1],,,2,2h[4:1],,1-5[8:1],,1,,,
{8}3-7[8:1],2b,3,5-1[8:1],6b,5,2,3-8[8:1],4b,3,,,
{8},1>7[2:1]/8,,8,,8,,,,8-5[8:1],,8,,3,4,3,5,2,2,6,6,1-4-1[2:1],,1,,,,,,
{16}6,5h[2:1],{8},,,3>8>3[1:1],,5,,6,,7,,8,,,,1<6<1[1:1],,2,,3,,4,,5h[4:1],,,,
{16}3,4,3,5,4,5<7[8:1],,,,5,4,,,,,3,,,1`2,,,,,3,4,,,4,5,,,5,6,,6h[4:1],7h[4:1],,,,,,,,
{8}8h[8:1],,2h[4:1],,3,,{16}4,5,,,,2,1,,,,6,5,6,,4h[8:1],,,8,,,,,,
{16}2,1,,,,3,4,2,5,1,6,8,7,1,6,2,4,,3`5,,3`5,,,,,
{8}4pp4[4:1],,4qq4[4:1],,8,,8,,
{16}8,7,,,,7,6,,,6,5,,,
{8}8,,1pp4[2:1],,,,,6-1[8:1],,6,,2,3,4,5/2-7[8:1],,2,,
{8}6h[4:1],,8h[4:1],,1h[4:1],,3-8[8:1],4,3,5,5>6[4:1],4,5,,3>1[8:1],,
{8}8-4[8:1]/3,7,8,7<5[8:1],1,7,1-5[8:1],8,1,7h[4:1],,4,6,6,5,5,6<1[8:1]/4>1[8:1],,
{8}64,,8,8h[8:1],2,2h[8:1],1b-5[8:1],,1,,1bw5[8:1],,1,,
{8}73,,73,7-2-7[2:1]/3-6[4:1],,,,,,5,5,4,4,3>8>3[2:1],6,7/3,,,,,7h[4:1],,5,4,
{8}36,6,36,6,2h[4:1]/6h[4:1],,,,7-4[8:1],,7,1-6[8:1],,1,4-8[8:1],,4,
{8}3-7[8:1],,3,2-6[8:1],,2,1-4[8:1],
{16},,8,,7,,7,,{24}6,5,4,3,2,1,8,7,6,5,,,
{8}2<7[8:1]*>5[8:1],,2,,6w2[8:1],,6,
{8},8qq5[2:1],,4,4,,3-8[8:1],,3,,7h[8:1],6h[8:1],5h[16:1],4h[8:1]/7-2[8:1],,7,,
{8}3h[4:1],,1h[4:1],,8h[4:1],,6-1[8:1],5,6,4,4<3[4:1],5,4,,6-8[8:1],,
{8}1-5[8:1]/6,2,1,2-4[8:1],8,2,8-4[8:1],1,8,2h[4:1],,5,3,3,4,4,3-8[8:1]/5-8[8:1],,
{8}35,,1,1h[8:1],7,7h[8:1],8b-4[8:1],,8,,8bw4[8:1],,8,,
{8}26,,26,2<7>2[2:1]/6>3[4:1],,,,,,4,4-8[8:1],4h[8:1],,,2,3,
{8}4-8[8:1],,34,,5-1[8:1],,56,6,6,1,1-3-1[4:1],,1/7-5-7[4:1],,,,
{8}1-5[8:1],2,1,2-4[8:1],8,2,8-4[8:1],1,8,2h[4:1],,5,3,3,4,4,
{8}5<8[8:1],,5,1>4[8:1],,1,7-3[8:1],,7,1-5[8:1],,1,8-4[8:1],7-3[8:1],,,2<2[1:1],,,
{8},1h[4:1],,,,8h[4:1],,,,7h[4:1],,,,3/6h[2:1],,,,,,2,2-5-2[4:1],1,1-7-3-6-4[3:2]/2,
{8},,,,,,
{8}2h[4:1],,{16}3,4,5,,{8}7-5-7[4:1],8,7,,,3,2,1h[8:1],{16}6,7,8,1/5,
{8},4,3h[2:1],,7-4[8:1],6,7,,2,2,7>2[4:1],,7<4[4:1],,7-2[4:1],,7-4[4:1],,,,,,
{8}7>7[1:1],,,,8h[4:1],,,,1h[4:1],,,,2h[4:1],,,,6/3h[4:1],,7,7-4-7[4:1],8,8-2-6-3-5[3:2]/7,
{8},,,,,,
{8}7h[4:1],,{16}6,5,4,,{8}2-4-2[4:1],1,2,,,6,7,8h[8:1],{16}3,2,1,8/4,
{8},5,5,2h[4:1],6,6,7h[4:1],3,3,3,
{16}5,5,5,,
{8}1-3[8:1]/6,7-4[8:1]/8,1,7-2[8:1],,5,5b,
E
