&title=今天不是明天
&artist= PIKASONIC feat. 兰音Reine
&first=-0.548
&lv_5=13
&des_5=Paradox
&inote_5=
(125){4},{12},,,,,,,,,,,,,,,E2/E8,
E3/E7,{3}Ch[12:13],
{6},,,,,,{2}5h[4:1]/4h[4:1],
{8}6h[8:1],5h[8:1],4h[8:1],3h[8:1],
6<2[4:1],6,2>6[32:9],2,,,,3h[8:1],
4h[8:1],5h[8:1],6h[8:1],3>7[4:1],3,5h[4:1],,,6,
5,4,3,{4}B6/B7/B3/B2/E7/E3,C,
{8}Ch[4:1],,,6h[4:1],5,5,5/4,3h[4:1],
4,4,5/4,5/4,B7/B8/B3/B4,B1/B2/B6/B5,,4h[2:1]/8<5[4:1],
{2}8,{8}5h[2:1]/1>4[4:1],1,,,,,5/4,
6/3,5/4,6/3,{4}1>5[4:1],
5<1[4:1],1>5[4:1],{8}5>1[4:1],,,6,
6,5,5,4,4,5/3,6/2,6/2,
Ch[4:1],{24},,,,,,8b,7b,6b,{8}5b,5/4,6/3,6/3,
{24}1x,2,3,4,5,6,7,8,1,2x,3,4,5,6,7,8,{12}1,7x/2x,{24},{8}7x/2x,
,6/2,5b<8[4:1]/1b>4[4:1],5b/1b,,,,5/4,
6/2,4b>1[4:1]/8b<5[4:1],{4}4b/8b,{8},,5/4,3/6,
{4}2/1-4[8:1],{8}1/8-5[8:1],8,{4}8/7-3[8:1],7,
{16}5,4,5,4,6,3,6,3,{8}6h[4:1],3h[4:1],,,3/7,
6/2,2/7v6[8:1],7/2v3[8:1],,,,,1-7[8:1]*-6[8:1],
1,{4}1-3[8:1]*-4[8:1],{16}1-5[4:1],,,,,8x,7x,6x,
,,6x,3x,7x,2x,{8}8x,1/7,6/2,5/3,5/3,
{16}5x,4x,5x,4x,5x,4x,5x,4x,{8}5x,8/1,1/8-4[8:1],2/7,
8/3-1[8:1],2,3/8-6[8:1],7,8/2-4[8:1],4-1[8:1],2/7-5[8:1],5-1[8:1],
7,2,{16},8/2,{8}8/2,8/2,7xv4[8:1]/3x<7[4:1],,3x/7x>3[4:1],
,4xq7[8:3],{4}4,{8}3,3,3,7-4[8:1]/2-5[8:1],
6/3,7/2,,Ch[8:1],{16},,5,6,{8}5>2[8:1],6,
{4}5b<8[8:1],{16}4/5b,,,6,{8}6b,2xv5[8:1]/6x>2[4:1],,6x/2x<6[4:1],
,5xp2[8:3],{4}5,{8}6,6,6,8-2[0.7152##0.24]*-6[0.7152##0.24],
2-4[0.7152##0.24]/6-4[0.7152##0.24],4-8[0.7152##0.24],,,,,3/4-6[8:1],4,
3-1[8:1],3,4-8<6[4:1]*-8>2[4:1],4,4,,,3/5,
{16}5,4,5,3,{8}5,5h[8:1],{16},5,{8}4h[400:49],,6/4,
{16}4,5,4,6,{8}4,4h[8:1],{16},4,{8}5h[8:1],,5x/4x,
{4}5xh[8:1]/4xh[8:1],{8}5/4,6xh[8:1]/3xh[8:1],,7xh[8:1]/3xh[8:1],,2xh[8:1]/6xh[8:1],
{16},,8,1,8,1,8,1,8,1,{8}8,8/1,1/8,
8,7/1,8,6/2,{16}5h[8:1],4,,,4h[8:1],5,,,{8}4,
5/3,4,6/2,{16}4h[8:1],5,,,5h[8:1],4,,,{8}5,
6/4,5,7/3,{16}8h[8:1],1,,,1h[8:1],8,,,{8}B7/B3,
8/2,1,8/2,{16}1h[8:1],B1,,,8h[8:1],B8,,,{8}Ch[4:1],
,,1b/3bh[4:1],,1,3/1,{16}2bx,2x,
,,{8}1bxh[8:1]/3bxh[8:1],,6h[4:1],{2}5h[4:1],
{8}5/4,2/6h[4:1],2,2,6b/2b,7,{4}6bxh[8:1]/8bxh[8:1],
{8}1/5,6,6,6,6,6,4/5h[8:1],4,
{4}6h[4:1]/5h[8:1],{8}5,6/7h[4:1],{4}6h[8:1],{8}7/6,6/5,
{4}4h[4:1]/5h[8:1],{8}5,4/3h[4:1],{4}4h[8:1],{8}4/3,3h[8:1]/2h[4:1],
,3,8qq5[4:1]/1pp4[4:1],8/1,8/1,,,Cfh[8:9],
{24}1x,1x,,,,,1x,2x,{6}3x,{24}3x,3x,,,,,3x,4x,{6}5x,
{8}1>5[4:1],{16}8,8,{8}7,6/A3,{16},,6,6,7b,7,{8}8,
8<4[4:1],{16}1,1,{8}2,3/A6,{16},,3,3,2b,2,{8}1,
8<4[4:1],8,4V28[4:1],4,8V64[4:1],8,4>8[4:1],4,
,A2,,6,7/5,7/5,{4}6h[8:1]/1>5[4:1],
{8}1/7h[4:1],{16},,,,1bx/Ch[8:3],2x,,,3bx,4x,,,{8}3h[4:1]/8<4[4:1],
,,2,2h[4:1],,8,7,2bh[8:1],
{16},,2b,7,2,7,2,7,2,7,2,7,2,7,{8}6/3,
{16}3b,6,3,6,3,6,3,6,3,6,3,6,3,6h[16:3],,,,,{8}3/7,
8-5b[4:1]/4-1b[4:1],4b/8b,8/4,,,6/3,
2/6,5-8b[4:1]/1-4b[4:1],5b/1b,5/1,,,C,B1/B8,
,7/6-1[8:1],6,6/5-1>4[4:1]*-1<6[4:1],5,5,{16},,,,5,
4,6,3,6,3,6,3,{8}6h[4:1],3,3h[8:3],6,
,,6p1[4:1],3,{2}2p5[4:1],
{8},6-4[8:1]*-3[8:1],6,6-8[8:1]*-1[8:1],,6-2[4:1],{16},,,5x,
4x,3x,,,{8}6x/3x,7x/1x,7,8x/6x,5/1,1h[12:7]/5h[12:7],
,,,,,7/2,{4}7/2<7[8:1],
2/5-8[8:1],1-4[8:1],1/6>3[8:1],6,
{8}8p4[8:1],1q5[8:1],8,1,,8/1-5[8:1],3,1/8-6[8:1],
7x,8/1-5[8:1],3x,1/8-4[8:1],6x,8/1-3[8:1],2x,1,
{16},5,4,5,3,6,{8}3,6/3,5/7V15[4:1],6,7/4V62[4:1],
3,4,1V37[4:1],1,1/6V84[4:1],6,6V82[4:1],6,
6,A8,,8x,7/1,6/2,7h[8:1],1h[8:1],
,8xw4[4:1],7x/1x,8,,,,1/6h[8:3],
2,3,4,5/3h[400:149],6,7,{4}8,
{8}2/8-4[8:1],7,8/1-5[8:1],2,1/7-3[8:1],6,7/2-4[8:1],5,
2/6-1[8:1],5,6/4>8[8:1],5,4/5<1[8:1],4,{4}5,
{8}6/4-8[8:1],3,4/5-1[8:1],6,5/3-7[8:1],2,3/6-8[8:1],1,
6/2-5[8:1],1,2/8<4[8:1],1,8/1>5[8:1],8,{4}1,
3x<7[4:1]/7-3[8:1],3x/7x>3[4:1],{8}5-1[8:3],5,,3,
3,3,,6x>2[4:1]/2-6[8:1],,6x/2x<6[4:1],,4>8-4[2:1],
{4}4,{8}6,6h[4:1],,,,E8,
E2,E6,E4,6h[8:1]/3h[8:1],,Cfh[4:1],,,{4}1>4[8:1],
1<6[8:1],1/5-1[8:1],5<8[8:1],
5>2[8:1],5/1-5b[8:1],1>4[8:1],1/7-2[8:1],
7/3-6[8:1],3/7-4[8:1],7/3-8[8:1],3/6>3[8:1],
{1}6/1qq1pp1[2:1],
{4}8<5[8:1],8>3[8:1],8/4-8[8:1],4>1[8:1],
4<7[8:1],4/8-4b[8:1],8<5[8:1],8,
6v4[8:1]/2v4[8:1],2v8[8:1]/6v8[8:1],,3/7,
3v5[8:1]/7v5[8:1],7v2[8:1]/3v8[8:1],{8},,8-2-7-3-6-4[4:3],4-6-3-7-2-8[4:3],
E
&lv_6=13
&des_6=Pototato
&inote_6=
(125){4},{1},{4},{16},B6,
C,B3,,,,,,,,,,,,,,,,,{4}C,
E5,E2,E5,E8,
B4,E2,B5,E8,
E6,B1,E4,B8,
{8}E6,B6,B7,E4,B3,B2,4/6,5,
{4}5/3,{8}2,3q6[8:3],,8,,7,
,5q4[8:3]*<4[8:3],4,5,,,,6,
7,6,{4}6<1[8:1],{8}4,3,3,4qq3qq1[8:3]*pp5pp7[8:3],
,,,,,,3/5,2,
{4}1x/7x,{8}3,2x/8x<5[8:1],,3,,4,
3>8[8:1],5,6x/3x,7,,6,5x,6q7[8:3]*>7[8:3],
,,,,,6,1,2/5,
,6/3,,7/4,,7/5,6/4,3/5,
4b/2b,{16}6,5,{8}4/7,{16}4,5,{8}3/6<1[8:1],2>5[8:1],,,6,
{16}3,4,{8}5/2,{16}5,4,{8}6/3>2-8[8:1],7<6-4[8:1],,,,4/2,
3/5,2<7[16:3]/6q3[16:3],{16},,,,,,,5,
4,6,5,6,{8}5,{16}4,3,,,{8}2/4,5/1,8/6,
7bx/B3/E4/B4,{16}8,7,{8}1/6,{16}8,1,{8}7/2<7[8:1],6>3[8:1],,,2,
{16}1,2,{8}8/3,{16}1,8,{8}2/7>8-2[8:1],3,4,5,
{16}5,7,5,7,4,6,4,6,3,5,3,5,4,5,4,5,
{8}5x/4x,5x/4x,5x/4x,5x/4x,4,{16}6,3,{4}8b-3[8:1],
6/8-5[8:1],8/2-5[8:1],{8}2/8-4[8:1],7,8/1-5[8:1],2,
1/7-3[8:1],6,7/8>3[8:1],1,8<5[8:1],7,8/4bx-7[8:1],3,
{4}2/4-1[8:1],{16}4/6-1[8:1],,,5,{8}6/4-8[8:1],3,4/5-1[8:1],6,
5/3-7[8:1],2,{4}4/3,1>2-4[8:1]/5<6-8[8:1],5bx/1bx-6[8:1],
3/1-4[8:1],1/7v4[8:1],{8}7/3v8[8:1],2,3/6<7-1[8:1],5,
6/4-2<1[8:1],3,4/5-1[8:1],6,4-8[8:1],3,4/6,7,
2/7-4[8:1],8,7x/2x,3,8/2-5[8:1],1,2x/8x<4[4:1],7,
{4}4x>8[4:1],8x<4[4:1],4x-8[8:1],8x,
{8}1b-5[8:1],6-8[8:1],1,6,{16}1,5,4,5,1,4,3,4,
{8}1b-3[8:1],4-8[8:1],1,4,{16}1,5,4,7,5,6,2,4,
{8}8b-4[8:1],5-7[8:1],8,5,{16}8,5,3,5,8,6,4,6,
{8}1b-5[8:1],6-8[8:1],1,6,{16}1,5,4,7,2,4,1,4,
{8}8bx-3[8:1],3x/4x-7[8:1],8x/7,4x,{16}1,6,4,6,1,5,3,5,
{8}2bx-5[8:1],5x/6x-1[8:1],2x/1x,6x,{16}2,5,4,6,2,4,3,8,
{8}1bx-5[8:1],5x/6x-8[8:1],1x/8x,6x,{16}1,4,3,5,1,5,4,6,
{4}4x-2[8:1]/5x-1[8:1],5x-7[8:1]/4x-8[8:1],5xp4[4:1]/4x>3-8[4:1],4bx/5bx,
{8},,,,,5/2,{16}3,5,{8}1,
{16}6/B4,B3,E3,B2,{8}6,{16}B3,E3,5`B2,B1,,,5`E3,B2,B1,B8,
4/B5,B6,E7,B7,{8}4,{16}B6,E7,3`B7,B8,,,3`E2,B1,B8,B7,
B6/B5,B4,B3,E3,,,B5/B4,B3,B2,B1,,,{4}6x/E2/D2/A1/A2/B1/B2,
{8}6/4,6,5/B2/A2,5,3,3,3/B7/A7,3,
8,8,7/D2/E2,7,3,3,3/B7/A7,3,
2,2,2/A6/D6,2,7,7,7/A3/D4,7,
{4}4q8[4:1],8V24[4:1],4<8[4:1],8<6v4>3b[1:2]*>2v4>3b[1:2],
{1},,,{4},,,{8}3,
2,
7/1,7,7/4,8/3,8,8/4,8/4,8/5h[8:1],
1,1/4,1/4,3/6h[8:1],3,3/6,2/7,1/7<3pp4-8[8:5],
1,1,1,2,2,2,2,2,
6/2qq7>3[8:5],6,6,5,5,5,5,5,
6bx/4bx,{16}6,5,{8}4/7,{16}3,4,{8}5/2pp4[8:1],6pp8[8:1],{16},,,,,,2,
1,{8}3/8,{16}7,8,{8}1/6q3[8:1],2q7[8:1],,,,4/6,
5/3,2p5[16:3]/4q1[16:3],{16},,,,,,,,5,
3,4,3,{8}4,{16}5,6,{8}5/7,6/4,3/5,2/4,
3bx/B7/E8/B8,{16}2,1,{8}8/3,{16}8,1,{8}2/7q4[8:1],3q8[8:1],{16},,,,,,7,
8,{8}1/6,{16}1,8,{8}7/2>3v8[8:1],6,5,4,
{16}4,2,4,2,5,3,5,3,6,4,6,4,5,4,5,4,
{8}4x/5x,4x/5x,4x/5x,4x/5x,5,{16}3,6,{4}1b-3[8:1],
5xh[1:2]/1b-7[8:1],,,B2/B3/E3,
,B7/E7/B6,,E2/B2/B1,
1-5[8:1]*-4[8:1],{16}Cf,,,8x,{8}7-5>4[8:1],8,7/1>2-4[8:1],2,
1/8-4[8:1],7,8/2-5[8:1],3,{4}2<1-7[8:1]/6>5-3[8:1],2bx/6bxv1[8:1],
6/2v5[8:1],2/6-8>1[8:1],{8}6/4>3-1[8:1],3,4/5-1[8:1],6,
5/3-7[8:1],2,3/4-8[8:1],5,4/1>2-4[8:1],2,1/5,6,
7/2-5[8:1],1,2bx/7bx,6,1/7-4[8:1],8,7bx/1bx>5[4:1],2,
{4}5bx<1[4:1],1bx>5-1[8:3],{2}5bxh[16:13],
{32}1x,2x,{16}3x,{32},,,,1x,8x,{16}7x,,,{8}3/8b-4[8:1],3-1[8:1],8,3,
5-7[8:1],8-4[8:1],5,8,5bxh[4:3],3,2,1,
{32}8x,7x,{16}6x,{32},,,,8x-4[8:1],1x,{16}2x,,5,{8}8/6-2[8:1],7,6/5>2[8:1],4,
5/6<7-1[8:1],7,6/4-2<1[8:1],3,4/5v8[8:1],6,{4}5/4xh[2:1],
{32}8x,7x,{16}6x,{32},,,,8x,1x,{16}2x,,,{8}6/1b-5[8:1],6-8[8:1],1,6,
4-2[8:1],1-5[8:1],4,1,4-8[8:1],7-5[8:1],4,7,
2bx-5[8:1],5bx/6bx-1[8:1],1bx/2bx,6bx,3bx-8[8:1],8bx/7bx-4[8:1],3bx,7bx,
{4}8x>4[4:1],4xV68[4:1],8xV24[4:1],4x,
{8}6,5,3/B7/B6,4,5,6,7/B2/B3,6,
5,4,3/E8/D8,2,4,5,6/E2/D2,7,
3,4,6/B2/B3,5,4,3,2/B7/B6,3,
4,5,6/E2/D2,7,5,4,3/E8/D8,2,
5/4v7[8:1],3,2x/4x,1,4/5v2[8:1],6,7x/5x,8,
5/4-7[8:1],3,2x/4x,1,4/5-2[8:1],6,7x/5x,8,
5/4<7[8:1],3,2x/4x,3,4/5>2[8:1],6,7/5,6,
{4}1xh[16:7],5xh[16:3],{8}1>4[8:1]/5<8[8:1],4z8[8:1]/8-4[8:1],
E
